Ссылка на приватное зеркало нашего сайта всего за 1$. Внимание количество ограничено!!!

2 сезон

iTunes

1 сезон

1

2 сезон

2 сезон

iTunes

1 сезон

RePack

30

Ultimate

ВАЖНО

ИГРА 18+

pack

RePack

MK11
pack

Забери бонус

RePack

jed

!!Акция!!

Alien_Rage

RePack

fifa19

RePack

Assassins Creed: Odyssey

RePack

NEED FOR SPEED™ PAYBACK

4 сезон

9 сезон

Бесстыжие 9 сезон

Все сериалы

все сериалы на PB.wtf

RePack

FAR CRY 5
  

Признайте меня виновным / Find Me Guilty (Сидни Люметт) [2006 г., Комедия, драма, криминал, HDTV 720р] pb.wtf

Признайте меня виновным через торрент pb.wtf

Размер: 4.77 GB | Добавлен: 9 лет 5 мес. назад | Торрент скачан:76 раз
Скачать  

16-06-2011 07:25 Признайте меня виновным Скачать торрент  

Признайте меня виновным
Find Me Guilty




Год выпуска: 2006
Страна: США
Жанр: Комедия, драма, криминал
Продолжительность: 02:04:37
Перевод: Профессиональный (многоголосый, закадровый)

Режиссер: Сидни Люметт

В ролях: Вин Дизель / Vin Diesel, Алекс Рокко / Alex Rocco, Фрэнк Пьетранголаре / Frank Pietrangolare, Ричард ДеДоменико / Richard DeDomenico, Джерри Грэйсон / Jerry Grayson, Тони Рэй Росси / Tony Ray Rossi, Винни Велла / Vinny Vella

Описание: Когда полиции удается арестовать 20 членов мафиозного клана Луккези, Джеки ДиНоршио по прозвищу Толстяк Ди, уже отбывающий 30-летний тюремный срок, получает соблазнительное предложение: Джеки выйдет на волю досрочно, если даст показания против своих корешей. Но Толстяк Ди — не стукач!

На процессе, который станет самым долгим и самым скандальным судебным разбирательством в США, он будет защищать себя сам. Вступив в непредсказуемый и рискованный поединок с властями, этот наглец и остряк доведет суд до абсурда, обратит факты против своих обвинителей и добьется самого шокирующего вердикта в истории американского правосудия!

Качество: HDTV 720р
Формат: MKV
Видео кодек: AVC
Аудио кодек: AC3
Видео: AVC, 4 640 Kbps, 1280 x 720 pixels, 23.976 fps, Bits/(Pixel*Frame) : 0.210
Audio #1 AC-3, 448 Kbps, 6 channels, 48.0 KHz : ru
Audio #2 AC-3, 384 Kbps, 6 channels, 48.0 KHz : en
Text #1 : UTF-8: ru
Text #2 : UTF-8: en
Complete name Find.Me.Guilty.2006.HDTV.mkv
Format : Matroska
File size : 4.77 GiB
Duration : 2h 4mn
Overall bit rate : 5 474 Kbps
Encoded date : UTC 2009-06-23 04:32:45
Writing application : mkvmerge v2.4.0 ('Fumbling Towards Ecstasy') built on Oct 11 2008 20:13:15
Writing library : libebml v0.7.7 + libmatroska v0.8.1

Video
ID : 1
Format : AVC
Format/Info : Advanced Video Codec
Format profile : High@L4.1
Format settings, CABAC : Yes
Format settings, ReFrames : 9 frames
Codec ID : V_MPEG4/ISO/AVC
Duration : 2h 4mn
Bit rate : 4 640 Kbps
Width : 1 280 pixels
Height : 720 pixels
Display aspect ratio : 16:9
Frame rate : 23.976 fps
Color space : YUV
Chroma subsampling : 4:2:0
Bit depth : 8 bits
Scan type : Progressive
Bits/(Pixel*Frame) : 0.210
Stream size : 3.95 GiB (83%)
Title : Find Me Guilty 720p x264 @ 4640kbps
Writing library : x264 core 67 r1165M 6841c5e
Encoding settings : cabac=1 / ref=9 / deblock=1:-2:-1 / analyse=0x3:0x133 / me=umh / subme=9 / psy_rd=1.0:0.0 / mixed_ref=1 / me_range=24 / chroma_me=1 / trellis=2 / 8x8dct=1 / cqm=0 / deadzone=21,11 / chroma_qp_offset=-2 / threads=6 / nr=0 / decimate=0 / mbaff=0 / bframes=3 / b_pyramid=1 / b_adapt=2 / b_bias=0 / direct=3 / wpredb=1 / keyint=250 / keyint_min=25 / scenecut=40 / rc=2pass / bitrate=4640 / ratetol=1.0 / qcomp=0.60 / qpmin=10 / qpmax=51 / qpstep=4 / cplxblur=20.0 / qblur=0.5 / ip_ratio=1.40 / pb_ratio=1.30 / aq=1:1.00
Language : English

Audio #1
ID : 2
Format : AC-3
Format/Info : Audio Coding 3
Mode extension : CM (complete main)
Codec ID : A_AC3
Duration : 2h 4mn
Bit rate mode : Constant
Bit rate : 448 Kbps
Channel(s) : 6 channels
Channel positions : Front: L C R, Side: L R, LFE
Sampling rate : 48.0 KHz
Bit depth : 16 bits
Compression mode : Lossy
Delay relative to video : 24ms
Stream size : 399 MiB (8%)
Language : Russian

Audio #2
ID : 3
Format : AC-3
Format/Info : Audio Coding 3
Mode extension : CM (complete main)
Codec ID : A_AC3
Duration : 2h 4mn
Bit rate mode : Constant
Bit rate : 384 Kbps
Channel(s) : 6 channels
Channel positions : Front: L C R, Side: L R, LFE
Sampling rate : 48.0 KHz
Bit depth : 16 bits
Compression mode : Lossy
Delay relative to video : 32ms
Stream size : 342 MiB (7%)
Title : English Dolby Digital Surround 5.1 @ 384kbps
Language : English

Text #1
ID : 4
Format : UTF-8
Codec ID : S_TEXT/UTF8
Codec ID/Info : UTF-8 Plain Text
Language : Russian

Text #2
ID : 5
Format : UTF-8
Codec ID : S_TEXT/UTF8
Codec ID/Info : UTF-8 Plain Text
Title : English
Language : English
pb.wtf



Скачать Признайте меня виновным через торрент http://i3.imageban.ru/out/2011/06/16/e53c5f4dba9905975771b4efa949250a.png Скачать фильм Признайте меня виновным через торрент бесплантно в хорошем качестве Описание: Когда полиции удается арестовать 20 членов мафиозного клана Луккези, Джеки ДиНоршио по прозвищу Толстяк Ди, уже отбывающий ... 5 10 4
Info! Золотая раздача, скачанное не засчитывается.
Торрент: Зарегистрирован [2011-06-16 07:25] · скачан: 76 раз
Статус: √ проверено
Размер: 4.77 GB
Как cкачать? Как скачать Признайте меня виновным через торрент | qTorrent

% Раздел Тема Автор DL S | L
Фильмы 2006-2008 [ 1.37 GB ] Признайте меня виновным / Find Me Guilty [2006 история DVDRip] sergei_s.75 Скачать
1 | 0
Фильмы 2006-2008 [ 2.1 GB ] Признайте меня виновным / Find Me Guilty [2006 BDRip-AVC] MVO stalonе Скачать
1 | 0
Фильмы [HD 720p, 1080p] (Хороший звук DUB, MVO) [ 7.48 GB ] Признайте меня виновным / Find Me Guilty [2006 BDRip 720p] MVO [] potroks Скачать
1 | 0

28-11-2019 20:33  

Отключить всю рекламу на сайте

16-06-2011 20:11 Признайте меня виновным Скачать торрент  

спасибо блинpb.wtf



    Дорогой пользователь! Огромная просьба, поблагодарите релизера, оцените раздачу и оставьте свои комментарий, если Вы скачали Признайте меня виновным через торрент бесплатно! Внесите свою лепту в развитие PiratBit!
    Комментировать посты могут только пользователи прошедшие не сложную регистрацию
    Показать сообщения:    

    Признайте меня виновным через торрент
    Скачать бесплатно Признайте меня виновным
    Признайте меня виновным скачать торрент
    Признайте меня виновным смотреть онлайн
    Cкачать фильм Признайте меня виновным бесплатно
    Признайте меня виновным скачать торрент в хорошем качестве
    Признайте меня виновным смотреть онлайн бесплатно в хорошем качестве


    Вы не можете начинать темы
    Вы не можете отвечать на сообщения
    Вы не можете редактировать свои сообщения
    Вы не можете удалять свои сообщения
    Вы не можете голосовать в опросах
    Вы не можете прикреплять файлы к сообщениям
    Вы можете скачивать файлы