1 сезон

3 сезон

iTunes

1

iTunes

MVO

iTunes

13

1 сезон

RePack

30

Deluxe

pack

Лицензия

ВАЖНО

ИГРА 18+

pack

RePack

MK11

RePack

jed

RePack

fifa19

RePack

RDR2

RePack

NEED FOR SPEED™ PAYBACK

4 сезон

9 сезон

Бесстыжие 9 сезон

Все сериалы

все сериалы на PB.wtf

RePack

FAR CRY 5

Anonymous, добрый день, мы катастрофически не успеваем собрать деньги на оплату серверов, помогите нам пожалуйста 5,10,15р., для нас важна любая помощь . В качестве благодарности мы отключим Вам всю рекламу на сайте (укажите свой ник в строку Ваше имя)!

×
  
Magnet ссылка

Принцесса де Монпансье / La princesse de Montpensier (Бертран Тавернье / Bertrand Tavernier) [2010, Германия, Франция, драма, мелодрама, история, DVD9] R5 «West Video» pb.wtf

Принцесса де Монпансье через торрент pb.wtf

Размер: 7.54 GB | Добавлен: 10 лет назад | Торрент скачан:25 раз
Скачать  

16-06-2011 18:50 Принцесса де Монпансье Скачать торрент  


Принцесса де Монпансье / La princesse de Montpensier
«Passion Destroys Everything»
Страна: Германия, Франция
Студия: Centre National de la Cinématographie (CNC), France 2 Cinéma, France 3 Cinéma, Pandora Filmproduktion GmbH, Paradis Films, Programme MEDIA de la Communauté Européenne, StudioCanal
Жанр: драма, мелодрама, история
Год выпуска: 2010
Мировая премьера: 16 мая 2010
Российская премьера: 9 декабря 2010, «West»
Дата выхода DVD: 15 июня 2011, «West Video»
Дата выхода Blu-Ray: 15 июня 2011, «West Video»
Продолжительность: 02:13:59
Перевод: Профессиональный (дублированный) [Лицензия]
Cубтитры: русские, украинские
Оригинальная аудиодорожка: французский
Режиссер: Бертран Тавернье / Bertrand Tavernier
В ролях: Тьерри, Ламбер Вильсон, Грегуар Лепренс-Ренге, Гаспар Улье, Рафаэль Персонас, Анатоль де Бодина, Эрик Рюллья, Сэмюэл Тейс, Мишель Вюйермоз, Жюдит Шемла
Описание: 1562 г., Францией управляет Карл IX, в стране бушуют религиозные войны… Мари де Мезьер, одна из самых богатых наследниц королевства, любит молодого герцога де Гиза, позже получившего прозвище «Меченый», и он, как ей кажется, разделяет ее чувство. Однако отец девушки, маркиз де Мезьер, стремится возвысить свою семью, и отдает дочь замуж за принца Монпансье, которого она даже не знает. Карл IX вызывает принца присоединиться к нему в борьбе с протестантами.
Франция охвачена огнем войны, и Монпансье отправляет свою молодую жену в отдаленный замок Шампиньи в сопровождении графа де Шабанна. Он поручает графу, своему бывшему наставнику и другу, завершить воспитание молодой принцессы, чтобы однажды она могла предстать при дворе. Мари старается забыть страсть, которую она по-прежнему питает к Гизу. Обстоятельства складываются таким образом, что Гиз и герцог Анжуйский, будущий король Генрих III, приезжают в Шампиньи, в то время как там находится Монпансье. Герцог Анжуйский, как и граф де Шабанн, влюбляется в принцессу… Мари становится предметом опасного и жестокого соперничества.

Бонусы: Трейлер, анонсы

Качество: DVD9 R5
Формат: DVD-Video
Видео кодек: MPEG2
Аудио кодек: AC3
Видео: PAL 16:9 (720x576(0.623)) MPEG Video,25,000 кадр/сек, 6457 Кбит/сек
Аудио #1: Russian (Dolby AC3, 6 ch) 384 Кбит/сек, 48,0 КГц
Аудио #2: Francais (Dolby AC3, 6 ch) 384 Кбит/сек, 48,0 КГц



Title: Мой диск
Size: 7.54 Gb ( 7 907 460 KBytes ) - DVD-9
Enabled regions: 1, 2, 3, 4, 5, 6, 7, 8

VTS_01 :
Play Length: 00:00:23
Video: PAL 4:3 (720x576) VBR

VTS_02 :
Play Length: 00:01:35
Video: PAL 16:9 (720x576) VBR, Auto Letterboxed
Audio:
Russian (Dolby AC3, 2 ch)
Russian (Dolby AC3, 2 ch)

VTS_03 :
Play Length: 00:02:19
Video: PAL 16:9 (720x576) VBR, Auto Letterboxed
Audio:
Russian (Dolby AC3, 2 ch)
English (Dolby AC3, 2 ch)

VTS_04 :
Play Length: 00:01:52
Video: PAL 16:9 (720x576) VBR, Auto Letterboxed
Audio:
Russian (Dolby AC3, 2 ch)
English (Dolby AC3, 2 ch)

VTS_05 :
Play Length: 00:02:25
Video: PAL 16:9 (720x576) VBR, Auto Letterboxed
Audio:
Russian (Dolby AC3, 2 ch)
English (Dolby AC3, 2 ch)

VTS_06 :
Play Length: 00:01:10
Video: PAL 4:3 (720x576) VBR
Audio:
English (Dolby AC3, 2 ch)
English (Dolby AC3, 2 ch)

VTS_07 :
Play Length: 02:13:59
Video: PAL 16:9 (720x576) VBR, Auto Pan&Scan, Auto Letterboxed
Audio:
Russian (Dolby AC3, 6 ch)
Francais (Dolby AC3, 6 ch)
Subtitles:
Russian
Ukrainian
Общее
Полное имя : F:\Новинки 2011\Princesa.de.Monpansye.2010.DVD9\VIDEO_TS\VTS_07_1.VOB
Формат : MPEG-PS
Размер файла : 1024 Мбайт
Продолжительность : 19 м.
Общий поток : 7372 Кбит/сек

Видео
Идентификатор : 224 (0xE0)
Формат : MPEG Video
Версия формата : Version 2
Профиль формата : Main@Main
Параметр BVOP формата : Да
Параметр матрицы формата : По умолчанию
Продолжительность : 19 м.
Вид битрейта : Переменный
Битрейт : 6457 Кбит/сек
Номинальный битрейт : 9800 Кбит/сек
Ширина : 720 пикс.
Высота : 576 пикс.
Соотношение сторон : 16:9
Частота кадров : 25,000 кадр/сек
Стандарт вещания : PAL
Цветовое пространство : YUV
Подвыборка цветности : 4:2:0
Битовая глубина : 8 бит
Тип развёртки : Чересстрочная
Порядок развёртки : Верхнее поле первое
Метод сжатия : С потерями
Бит/(Пиксели*Кадры) : 0.623
Размер потока : 897 Мбайт (88%)

Аудио #1
Идентификатор : 189 (0xBD)-128 (0x80)
Формат : AC-3
Формат/Информация : Audio Coding 3
Расширение режима : CM (complete main)
Режим смешивания : DVD-Video
Продолжительность : 19 м.
Вид битрейта : Постоянный
Битрейт : 384 Кбит/сек
Канал(ы) : 6 канала(ов)
Расположение каналов : Front: L C R, Side: L R, LFE
Частота : 48,0 КГц
Битовая глубина : 16 бит
Метод сжатия : С потерями
Размер потока : 53,3 Мбайт (5%)

Аудио #2
Идентификатор : 189 (0xBD)-129 (0x81)
Формат : AC-3
Формат/Информация : Audio Coding 3
Расширение режима : CM (complete main)
Режим смешивания : DVD-Video
Продолжительность : 19 м.
Вид битрейта : Постоянный
Битрейт : 384 Кбит/сек
Канал(ы) : 6 канала(ов)
Расположение каналов : Front: L C R, Side: L R, LFE
Частота : 48,0 КГц
Битовая глубина : 16 бит
Метод сжатия : С потерями
Размер потока : 53,3 Мбайт (5%)

Текст
Идентификатор : 189 (0xBD)-32 (0x20)
Формат : RLE
Формат/Информация : Run-length encoding
Режим смешивания : DVD-Video










pb.wtf



Скачать Принцесса де Монпансье через торрент http://i1.imageban.ru/out/2011/06/16/f53e6264faec4f839663752140d7e593.jpg Скачать фильм Принцесса де Монпансье через торрент бесплантно в хорошем качестве Описание: 1562 г., Францией управляет Карл IX, в стране бушуют религиозные войны… Мари де Мезьер, одна из самых богатых наследниц ... 10 10 1
Info! Золотая раздача, скачанное не засчитывается.
Торрент: Зарегистрирован [2011-06-16 18:50] · скачан: 25 раз
Статус: √ проверено
Размер: 7.54 GB
Как cкачать? Как скачать Принцесса де Монпансье через торрент | UTorrent

28-11-2019 20:33  

Отключить всю рекламу на сайте

    Дорогой пользователь! Огромная просьба, поблагодарите релизера, оцените раздачу и оставьте свои комментарий, если Вы скачали Принцесса де Монпансье через торрент бесплатно! Внесите свою лепту в развитие PiratBit!
    Комментировать посты могут только пользователи прошедшие не сложную регистрацию
    Показать сообщения:    

    Принцесса де Монпансье через торрент
    Скачать бесплатно Принцесса де Монпансье
    Принцесса де Монпансье скачать торрент
    Принцесса де Монпансье смотреть онлайн
    Cкачать фильм Принцесса де Монпансье бесплатно
    Принцесса де Монпансье скачать торрент в хорошем качестве
    Принцесса де Монпансье смотреть онлайн бесплатно в хорошем качестве


    Вы не можете начинать темы
    Вы не можете отвечать на сообщения
    Вы не можете редактировать свои сообщения
    Вы не можете удалять свои сообщения
    Вы не можете голосовать в опросах
    Вы не можете прикреплять файлы к сообщениям
    Вы можете скачивать файлы