Ссылка на приватное зеркало нашего сайта всего за 1$. Внимание количество ограничено!!!

2 сезон

iTunes

1 сезон

1

iTunes

iTunes

iTunes

1 сезон

RePack

30

ИГРА 18+

pack

ВАЖНО

!!Акция!!

Alien_RageХит недели

RePack

MK11
pack

Забери бонус

RePack

jed

!!Акция!!

Alien_Rage

RePack

fifa19

RePack

Assassins Creed: Odyssey

RePack

NEED FOR SPEED™ PAYBACK

4 сезон

9 сезон

Бесстыжие 9 сезон

Все сериалы

все сериалы на PB.wtf

RePack

FAR CRY 5
  

Меня зовут Кхан / My Name Is Khan (Каран Джохар / Karan Dzhohar) [2010, Индия, драма, мелодрама, BDRip 1080p] DUB Sub (Rus, Eng) + original pb.wtf

Меня зовут Кхан через торрент pb.wtf

Размер: 8.38 GB | Добавлен: 9 лет 4 мес. назад | Торрент скачан:77 раз
Скачать  

18-06-2011 09:07 Меня зовут Кхан Скачать торрент  


Меня зовут Кхан / My Name Is Khan
"Обычный человек, необычайное путешествие... во имя любви"


Год выпуска: 2010
Страна: Индия
Жанр: драма, мелодрама
Продолжительность: 155 мин.
Перевод: Профессиональный (полное дублирование) + вставки VO (в тех местах, где дубляж отсутствует, наложена одноголосая озвучка zamez`a)
Оригинальная дорожка: Hindi
Субтитрых: Английские (вшитые)

Режиссер: Каран Джохар
Продюссер: Хироо Джохар, Гаури Кхан, Самит Чаула
Сценарий: Шибани Батижа, Нираджан Лингер

Бюджет: $12 000 000
Премьера в мире: 11 февраля 2010

PG-13
-Детям до 13 лет просмотр не желателен


В ролях:
Шахрукх Кхан, Шэйн Харпер, Каджол, Хармони Блоссом, Стефани Хакабай, Кристофер Б. Дункан, Кэтлин М. Дарси, Мишель Марш, Дженнифер Экхолс, Адриан Кали Тернер

Описание:
Ризван Кхан, мусульманин из Индии, переезжает в Сан-Франциско и живет со своим братом и невесткой. Ризван, страдающий от Синдрома Аспергера, влюбляется в Мандиру. Несмотря на протесты его семьи, они женятся и начинают вместе небольшой бизнес. Они живут счастливо до 11 сентября 2001 года, когда отношение к мусульманам резко меняется. Когда происходит трагедия, Мандира оказывается раздавленной и их отношения дают трещину. Ризван растерян и очень расстроен тем, что любовь всей его жизни покинула его. Чтобы вернуть ее, он предпринимает трогательное и вдохновляющее путешествие через всю Америку.

Доп. информация:
Cведение аудио: The_Mummy
Сборка: Th4K
Cохранены чаптеры как на Blu-ray

Качество: BDRip(1080p)
Формат: MKV
Видео кодек: X264
Аудио кодек:AC3, DTS
Видео:MPEG-4 AVC, 1920x816, 24.00fps, ~ 5539 kbps
Аудио #1: Русский - 48 kHz, AC3, 3/2 (L,C,R,l,r) + LFE ch, ~ 384.00 kbps (Дубляж + вставки VO zamez)
Аудио #2: Хинди - 48 kHz, DTS, 3/2 (L,C,R,l,r) + LFE ch, ~1510.00 kbps avg (Оригинал)

Релиз:


скриншот  скриншот  скриншот  скриншот  скриншот  скриншот  скриншот  скриншот  скриншот  скриншот  скриншот  скриншот  скриншот  скриншот  скриншот  скриншот  скриншот  скриншот  скриншот  скриншот  скриншот  скриншот  скриншот  скриншот  
General
Unique ID : 211821292040923207420527020431730719426 (0x9F5B4C02F3A89FD7AE0CF2C2B51EBAC2)
Complete name : D:\Menja.Zovut.Khan.2010.x264.BDRip.1080p.BwTorrents\Menja.Zovut.Khan.2010.x264.BDRip.1080p.BwTorrents.mkv
Format : Matroska
File size : 8.38 GiB
Duration : 2h 41mn
Overall bit rate : 7 432 Kbps
Encoded date : UTC 2011-02-05 13:57:39
Writing application : mkvmerge v2.1.0 ('Another Place To Fall') built on Aug 19 2007 13:40:07
Writing library : libebml v0.7.7 + libmatroska v0.8.1

Video
ID : 1
Format : AVC
Format/Info : Advanced Video Codec
Format profile : High@L4.1
Format settings, CABAC : Yes
Format settings, ReFrames : 4 frames
Codec ID : V_MPEG4/ISO/AVC
Duration : 2h 41mn
Bit rate : 5 539 Kbps
Width : 1 920 pixels
Height : 816 pixels
Display aspect ratio : 2.35:1
Frame rate : 24.000 fps
Color space : YUV
Chroma subsampling : 4:2:0
Bit depth : 8 bits
Scan type : Progressive
Bits/(Pixel*Frame) : 0.147
Stream size : 6.08 GiB (73%)
Title : My Name Is Khan 1080p @ TmG
Writing library : x264 core 104 r1688 0b36c6d
Encoding settings : cabac=1 / ref=4 / deblock=1:-2:-1 / analyse=0x3:0x113 / me=umh / subme=7 / psy=1 / psy_rd=1.00:0.00 / mixed_ref=1 / me_range=16 / chroma_me=1 / trellis=2 / 8x8dct=1 / cqm=0 / deadzone=21,11 / fast_pskip=1 / chroma_qp_offset=-2 / threads=6 / sliced_threads=0 / nr=0 / decimate=1 / interlaced=0 / constrained_intra=0 / bframes=3 / b_pyramid=0 / b_adapt=2 / b_bias=0 / direct=3 / weightb=1 / open_gop=0 / weightp=0 / keyint=250 / keyint_min=24 / scenecut=40 / intra_refresh=0 / rc_lookahead=40 / rc=2pass / mbtree=1 / bitrate=5539 / ratetol=1.0 / qcomp=0.60 / qpmin=10 / qpmax=51 / qpstep=4 / cplxblur=20.0 / qblur=0.5 / ip_ratio=1.40 / aq=1:1.00
Language : Hindi

Audio #1
ID : 2
Format : AC-3
Format/Info : Audio Coding 3
Mode extension : CM (complete main)
Codec ID : A_AC3
Duration : 2h 41mn
Bit rate mode : Constant
Bit rate : 384 Kbps
Channel(s) : 6 channels
Channel positions : Front: L C R, Side: L R, LFE
Sampling rate : 48.0 KHz
Bit depth : 16 bits
Compression mode : Lossy
Stream size : 444 MiB (5%)
Title : AC3 Rus
Language : Russian

Audio #2
ID : 3
Format : DTS
Format/Info : Digital Theater Systems
Format profile : ES
Codec ID : A_DTS
Duration : 2h 41mn
Bit rate mode : Constant
Bit rate : 1 510 Kbps
Channel(s) : 6 channels
Channel positions : Front: L C R, Side: L R, LFE
Sampling rate : 48.0 KHz
Bit depth : 24 bits
Compression mode : Lossy
Stream size : 1.70 GiB (20%)
Title : Hindi DTS-ES
Language : Hindi

Text
ID : 4
Format : UTF-8
Codec ID : S_TEXT/UTF8
Codec ID/Info : UTF-8 Plain Text
Title : English Subtitle
Language : English

Menu
00:00:00.000 : en:00:00:00.000
00:04:31.417 : en:00:04:31.417
00:09:40.000 : en:00:09:40.000
00:21:47.417 : en:00:21:47.417
00:27:45.417 : en:00:27:45.417
00:33:31.000 : en:00:33:31.000
00:39:58.000 : en:00:39:58.000
00:46:01.417 : en:00:46:01.417
00:55:57.625 : en:00:55:57.625
00:57:55.000 : en:00:57:55.000
01:03:21.000 : en:01:03:21.000
01:10:36.417 : en:01:10:36.417
01:21:40.000 : en:01:21:40.000
01:27:10.000 : en:01:27:10.000
01:33:07.000 : en:01:33:07.000
01:41:40.000 : en:01:41:40.000
01:47:41.000 : en:01:47:41.000
01:52:04.000 : en:01:52:04.000
01:56:58.000 : en:01:56:58.000
02:09:53.625 : en:02:09:53.625
02:15:36.000 : en:02:15:36.000
02:24:17.000 : en:02:24:17.000
02:27:05.625 : en:02:27:05.625
02:31:33.000 : en:02:31:33.000





pb.wtf



Скачать Меня зовут Кхан через торрент http://i2.imageban.ru/out/2012/05/17/10050029970777247ecf7976a663c992.jpg Скачать фильм Меня зовут Кхан через торрент бесплантно в хорошем качестве Описание: Ризван Кхан, мусульманин из Индии, переезжает в Сан-Франциско и живет со своим братом и невесткой. Ризван, страдающий от Синдрома ... 9.7 10 3
Info! Золотая раздача, скачанное не засчитывается.
Торрент: Зарегистрирован [2011-06-18 09:07] · скачан: 77 раз
Статус: √ проверено
Размер: 8.38 GB
Как cкачать? Как скачать Меня зовут Кхан через торрент | qTorrent

% Раздел Тема Автор DL S | L
Фильмы 2010 [ 2.91 GB ] Меня зовут Кхан / My Name Is Khan [2010 DVDRip + [Original] Eng+Hin] anton210896 Скачать
1 | 0


Последний раз редактировалось: chack (2012-05-17 05:51), всего редактировалось 4 раз(а)

28-11-2019 20:33  

Отключить всю рекламу на сайте

    Дорогой пользователь! Огромная просьба, поблагодарите релизера, оцените раздачу и оставьте свои комментарий, если Вы скачали Меня зовут Кхан через торрент бесплатно! Внесите свою лепту в развитие PiratBit!
    Комментировать посты могут только пользователи прошедшие не сложную регистрацию
    Показать сообщения:    

    Меня зовут Кхан через торрент
    Скачать бесплатно Меня зовут Кхан
    Меня зовут Кхан скачать торрент
    Меня зовут Кхан смотреть онлайн
    Cкачать фильм Меня зовут Кхан бесплатно
    Меня зовут Кхан скачать торрент в хорошем качестве
    Меня зовут Кхан смотреть онлайн бесплатно в хорошем качестве


    Вы не можете начинать темы
    Вы не можете отвечать на сообщения
    Вы не можете редактировать свои сообщения
    Вы не можете удалять свои сообщения
    Вы не можете голосовать в опросах
    Вы не можете прикреплять файлы к сообщениям
    Вы можете скачивать файлы