2 сезон

iTunes

1 сезон

1

iTunes

iTunes

iTunes

1 сезон

RePack

30

ИГРА 18+

pack

ВАЖНО

!!Акция!!

Alien_RageХит недели

RePack

MK11
pack

Забери бонус

RePack

jed

!!Акция!!

Alien_Rage

RePack

fifa19

RePack

Assassins Creed: Odyssey

RePack

NEED FOR SPEED™ PAYBACK

4 сезон

9 сезон

Бесстыжие 9 сезон

Все сериалы

все сериалы на PB.wtf

RePack

FAR CRY 5
  

Криминальная фишка от Генри / Henry's Crime (Малькольм Венвилль)[2010, мелодрама, комедия, криминал, BDRip 720p] pb.wtf

Криминальная фишка от Генри через торрент pb.wtf

Размер: 3.21 GB | Добавлен: 9 лет 4 мес. назад | Торрент скачан:190 раз
Скачать  

20-06-2011 19:58 Криминальная фишка от Генри Скачать торрент  

Криминальная фишка от Генри / Henry's Crime (2010) BDRip 720p
от
DHT-Movies

Название: Криминальная фишка от Генри
Оригинальное название: Henry's Crime
Год выхода: 2010
Жанр: Мелодрама, комедия, криминал
Режиссер: Малькольм Венвилль
В ролях: Киану Ривз, Джуди Грир, Фишер Стивенс, Дэнни Хоч, Билл Дьюк, Дрю МакВети, Тим Снэй, Джеймс Каан, Карлос Зизарро, Крис Кардона

Описание:
Встречайте Генри — самого унылого парня в Америке. Он сидит в своей будке у дороги, взимая пошлину с проезжающих. Казалось, в его жизни ничто не может измениться. Но однажды сомнительный приятель попросил Генри подождать его у крыльца главного банка в Буффало… В результате — четыре года тюрьмы по ложному обвинению в ограблении. Но пройдет время, и Генри вернется к тому самому банку, чтобы взять свое…


Страна: США
Продолжительность: 01:47:45
Перевод: Дублированный + Оригинал


Релиз от: | by Electro


Файл
Кодек: h.264
Качество: BDRip 720p [рип с Blu-Ray 1080p]
Видео: h.264@L4.1, 1280x536 , 23.976 fps, ~3502 kbps avg, 0.208 bit/pixel.
Аудио 1: 48 kHz, AC3 Dolby Digital, 3/2 (L,C,R,l,r) + LFE ch, ~384.00 kbps avg | Дубляж
Аудио 2: 48 kHz, AC3 Dolby Digital, 3/2 (L,C,R,l,r) + LFE ch, ~384.00 kbps avg | Оригинал
Субтитры: Русские, Английские
Format : Matroska
File size : 3.21 GiB
Duration : 1h 47mn
Overall bit rate : 4 269 Kbps
Movie name : Reliz by Electro
Writing application : mkvmerge v4.6.0 ('Still Crazy After All These Years') ñáîðêà îò Apr 1 2011 21:01:49
Writing library : libebml v1.2.0 + libmatroska v1.1.0
Video #1
ID : 1
Format : AVC
Format/Info : Advanced Video Codec
Format profile : High@L4.1
Format settings, CABAC : Yes
Format settings, ReFrames : 5 frames
Muxing mode : Container profile=Unknown@4.1
Codec ID : V_MPEG4/ISO/AVC
Duration : 1h 47mn
Bit rate : 3 502 Kbps
Width : 1 280 pixels
Height : 536 pixels
Display aspect ratio : 2.35:1
Frame rate : 23.976 fps
Resolution : 24 bits
Colorimetry : 4:2:0
Scan type : Progressive
Bits/(Pixel*Frame) : 0.208
Stream size : 2.57 GiB (80%)
Writing library : x264 core 115 r1937 aa21558
Encoding settings : cabac=1 / ref=5 / deblock=1:-2:-2 / analyse=0x3:0x113 / me=umh / subme=9 / psy=1 / psy_rd=1.00:0.00 / mixed_ref=1 / me_range=24 / chroma_me=1 / trellis=2 / 8x8dct=1 / cqm=0 / deadzone=21,11 / fast_pskip=1 / chroma_qp_offset=-2 / threads=6 / sliced_threads=0 / nr=0 / decimate=1 / interlaced=0 / bluray_compat=0 / constrained_intra=0 / bframes=5 / b_pyramid=2 / b_adapt=2 / b_bias=0 / direct=1 / weightb=1 / open_gop=0 / weightp=2 / keyint=250 / keyint_min=23 / scenecut=40 / intra_refresh=0 / rc_lookahead=40 / rc=2pass / mbtree=1 / bitrate=3502 / ratetol=1.0 / qcomp=0.60 / qpmin=0 / qpmax=69 / qpstep=4 / cplxblur=20.0 / qblur=0.5 / ip_ratio=1.40 / aq=1:1.00
Audio #2
ID : 2
Format : AC-3
Format/Info : Audio Coding 3
Codec ID : A_AC3
Duration : 1h 47mn
Bit rate mode : Constant
Bit rate : 384 Kbps
Channel(s) : 6 channels
Channel positions : Front: L C R, Surround: L R, LFE
Sampling rate : 48.0 KHz
Stream size : 296 MiB (9%)
Title : Dub
Language : Russian
Audio #3
ID : 3
Format : AC-3
Format/Info : Audio Coding 3
Codec ID : A_AC3
Duration : 1h 47mn
Bit rate mode : Constant
Bit rate : 384 Kbps
Channel(s) : 6 channels
Channel positions : Front: L C R, Surround: L R, LFE
Sampling rate : 48.0 KHz
Stream size : 296 MiB (9%)
Title : Original
Text #4
ID : 4
Format : UTF-8
Codec ID : S_TEXT/UTF8
Codec ID/Info : UTF-8 Plain Text
Language : Russian
Text #5
ID : 5
Format : UTF-8
Codec ID : S_TEXT/UTF8
Codec ID/Info : UTF-8 Plain Text
скриншот  скриншот  скриншот  
pb.wtf



Скачать Криминальная фишка от Генри через торрент http://lostpic.net/images/d93f682d5f1ef74ef1102545fa15dd89.png Скачать фильм Криминальная фишка от Генри через торрент бесплантно в хорошем качестве Описание: Встречайте Генри — самого унылого парня в Америке. Он сидит в своей будке у дороги, взимая пошлину с проезжающих. Казалось, в его ... 10 10 1
Info! Золотая раздача, скачанное не засчитывается.
Торрент: Зарегистрирован [2011-06-20 19:58] · скачан: 190 раз
Статус: √ проверено
Размер: 3.21 GB
Как cкачать? Как скачать Криминальная фишка от Генри через торрент | qTorrent

28-11-2019 20:33  

Отключить всю рекламу на сайте

23-09-2011 06:13 Криминальная фишка от Генри Скачать торрент  

скорость маловата
поддайте газу ...плизpb.wtf



    Дорогой пользователь! Огромная просьба, поблагодарите релизера, оцените раздачу и оставьте свои комментарий, если Вы скачали Криминальная фишка от Генри через торрент бесплатно! Внесите свою лепту в развитие PiratBit!
    Комментировать посты могут только пользователи прошедшие не сложную регистрацию
    Показать сообщения:    

    Криминальная фишка от Генри через торрент
    Скачать бесплатно Криминальная фишка от Генри
    Криминальная фишка от Генри скачать торрент
    Криминальная фишка от Генри смотреть онлайн
    Cкачать фильм Криминальная фишка от Генри бесплатно
    Криминальная фишка от Генри скачать торрент в хорошем качестве
    Криминальная фишка от Генри смотреть онлайн бесплатно в хорошем качестве


    Вы не можете начинать темы
    Вы не можете отвечать на сообщения
    Вы не можете редактировать свои сообщения
    Вы не можете удалять свои сообщения
    Вы не можете голосовать в опросах
    Вы не можете прикреплять файлы к сообщениям
    Вы можете скачивать файлы