Ссылка на приватное зеркало нашего сайта всего за 1$. Внимание количество ограничено!!!

2 сезон

iTunes

1 сезон

1

iTunes

iTunes

iTunes

1 сезон

RePack

30

ИГРА 18+

pack

ВАЖНО

!!Акция!!

Alien_RageХит недели

RePack

MK11
pack

Забери бонус

RePack

jed

!!Акция!!

Alien_Rage

RePack

fifa19

RePack

Assassins Creed: Odyssey

RePack

NEED FOR SPEED™ PAYBACK

4 сезон

9 сезон

Бесстыжие 9 сезон

Все сериалы

все сериалы на PB.wtf

RePack

FAR CRY 5
  

Секретный материальчик / Paul (Грег Моттола) [2011, комедия, фантастика, приключения, BDRip 720p] pb.wtf

Секретный материальчик через торрент pb.wtf

Размер: 3.22 GB | Добавлен: 9 лет 4 мес. назад | Торрент скачан:70 раз
Скачать  

21-06-2011 16:27 Секретный материальчик Скачать торрент  

Секретный материальчик / Paul (2011) BDRip 720p
от
DHT-Movies

Название: Пол: Секретный материальчик
Оригинальное название: Paul
Год выхода: 2011
Жанр: Комедия, фантастика, приключения
Режиссер: Грег Моттола
В ролях: Саймон Пегг, Ник Фрост, Джереми Оуэн, Джефри Тэмбор, Дэвид Хаус, Дженнифер Грэйнджер, Сигурни Уивер, Нельсон Асценсио, Джейн Линч, Дэвид Кокнер, Джесси Племонс

Описание:
Два английских гика отправляются на одно из самых значимых фанатских событий в области фантастики - конвент ComicCon в Америке. По пути, неподалёку от известной Зоны 51, они встречают сбежавшего инопланетянина по имени Пол, который просит помочь ему добраться домой. Пытаясь спастись от правительственных агентов, герои случайно похищают женщину и натыкаются на обкуренную свидетельницу аварийной посадки Пола на Землю.


Страна: США, Великобритания
Студия: Universal Pictures, Relativity Media, Working Title Films
Продолжительность: 01:43:40
Перевод: Дублированный + Оригинал


Релиз от: | by Electro


Файл
Кодек: h.264
Качество: BDRip 720p [рип с BDRemux 1080p]
Видео: h.264@L4.1, 1280x544 , 23.976 fps, ~3674 kbps avg, 0.215 bit/pixel.
Аудио 1: 48 kHz, AC3 Dolby Digital, 3/2 (L,C,R,l,r) + LFE ch, ~384.00 kbps avg | Дубляж
Аудио 2: 48 kHz, AC3 Dolby Digital, 3/2 (L,C,R,l,r) + LFE ch, ~384.00 kbps avg | Оригинал
Субтитры: Русские(форсированные), Английские (полные, обычные + для слабослышащих)

x264 [info]: frame I:1564 Avg QP:14.57 size:128886
x264 [info]: frame P:33275 Avg QP:16.84 size: 38331
x264 [info]: frame B:114298 Avg QP:19.83 size: 12071
x264 [info]: consecutive B-frames: 2.6% 2.5% 9.6% 16.1% 21.9% 47.2%
x264 [info]: mb I I16..4: 7.5% 76.8% 15.7%
x264 [info]: mb P I16..4: 3.1% 10.0% 1.3% P16..4: 37.9% 26.3% 14.3% 0.0% 0.0% skip: 7.1%
x264 [info]: mb B I16..4: 0.2% 0.9% 0.1% B16..8: 44.7% 10.9% 3.0% direct: 5.5% skip:34.7% L0:46.0% L1:44.5% BI: 9.5%
x264 [info]: 8x8 transform intra:72.3% inter:61.6%
x264 [info]: coded y,uvDC,uvAC intra: 80.7% 86.7% 67.2% inter: 29.9% 25.6% 4.6%
x264 [info]: i16 v,h,dc,p: 74% 7% 5% 15%
x264 [info]: i8 v,h,dc,ddl,ddr,vr,hd,vl,hu: 9% 8% 6% 10% 15% 14% 14% 11% 12%
x264 [info]: i4 v,h,dc,ddl,ddr,vr,hd,vl,hu: 10% 8% 4% 10% 16% 15% 14% 12% 12%
x264 [info]: i8c dc,h,v,p: 47% 19% 17% 17%
x264 [info]: Weighted P-Frames: Y:4.6% UV:3.2%
x264 [info]: ref P L0: 46.4% 11.1% 20.6% 8.4% 7.3% 5.2% 0.9% 0.0%
x264 [info]: ref B L0: 73.1% 14.9% 7.9% 2.9% 1.1%
x264 [info]: ref B L1: 91.4% 8.6%
File size : 3.22 GiB
Duration : 1h 43mn
Overall bit rate : 4 443 Kbps
Movie name : Reliz by Electro
Writing application : mkvmerge v4.6.0 ('Still Crazy After All These Years') ñáîðêà îò Apr 1 2011 21:01:49
Writing library : libebml v1.2.0 + libmatroska v1.1.0
Video #1
ID : 1
Format : AVC
Format/Info : Advanced Video Codec
Format profile : High@L4.1
Format settings, CABAC : Yes
Format settings, ReFrames : 6 frames
Muxing mode : Container profile=Unknown@4.1
Codec ID : V_MPEG4/ISO/AVC
Duration : 1h 43mn
Bit rate : 3 674 Kbps
Width : 1 280 pixels
Height : 544 pixels
Display aspect ratio : 2.35:1
Frame rate : 23.976 fps
Resolution : 24 bits
Colorimetry : 4:2:0
Scan type : Progressive
Bits/(Pixel*Frame) : 0.215
Stream size : 2.59 GiB (81%)
Writing library : x264 core 115 r1937 aa21558
Encoding settings : cabac=1 / ref=6 / deblock=1:-2:-2 / analyse=0x3:0x113 / me=umh / subme=9 / psy=1 / psy_rd=1.00:0.00 / mixed_ref=1 / me_range=24 / chroma_me=1 / trellis=2 / 8x8dct=1 / cqm=0 / deadzone=21,11 / fast_pskip=1 / chroma_qp_offset=-2 / threads=6 / sliced_threads=0 / nr=0 / decimate=1 / interlaced=0 / bluray_compat=0 / constrained_intra=0 / bframes=5 / b_pyramid=2 / b_adapt=2 / b_bias=0 / direct=1 / weightb=1 / open_gop=0 / weightp=2 / keyint=250 / keyint_min=23 / scenecut=40 / intra_refresh=0 / rc_lookahead=40 / rc=2pass / mbtree=1 / bitrate=3674 / ratetol=1.0 / qcomp=0.60 / qpmin=0 / qpmax=69 / qpstep=4 / cplxblur=20.0 / qblur=0.5 / ip_ratio=1.40 / aq=1:1.00
Audio #2
ID : 2
Format : AC-3
Format/Info : Audio Coding 3
Codec ID : A_AC3
Duration : 1h 43mn
Bit rate mode : Constant
Bit rate : 384 Kbps
Channel(s) : 6 channels
Channel positions : Front: L C R, Surround: L R, LFE
Sampling rate : 48.0 KHz
Stream size : 285 MiB (9%)
Title : Dub
Language : Russian
Audio #3
ID : 3
Format : AC-3
Format/Info : Audio Coding 3
Codec ID : A_AC3
Duration : 1h 43mn
Bit rate mode : Constant
Bit rate : 384 Kbps
Channel(s) : 6 channels
Channel positions : Front: L C R, Surround: L R, LFE
Sampling rate : 48.0 KHz
Stream size : 285 MiB (9%)
Title : Original
Text #4
ID : 4
Format : UTF-8
Codec ID : S_TEXT/UTF8
Codec ID/Info : UTF-8 Plain Text
Language : Russian
Text #5
ID : 5
Format : UTF-8
Codec ID : S_TEXT/UTF8
Codec ID/Info : UTF-8 Plain Text
Text #6
ID : 6
Format : UTF-8
Codec ID : S_TEXT/UTF8
Codec ID/Info : UTF-8 Plain Text
Title : SND
скриншот  скриншот  скриншот  
pb.wtf



Скачать Секретный материальчик через торрент http://lostpic.net/images/b2b5d85d78c9d02b9e11a47ff9fd49fc.png Скачать фильм Секретный материальчик через торрент бесплантно в хорошем качестве Описание: Два английских гика отправляются на одно из самых значимых фанатских событий в области фантастики - конвент ComicCon в Америке. ... 5 10 3
Info! Золотая раздача, скачанное не засчитывается.
Торрент: Зарегистрирован [2011-06-21 16:27] · скачан: 70 раз
Статус: √ проверено
Размер: 3.22 GB
Как cкачать? Как скачать Секретный материальчик через торрент | qTorrent

% Раздел Тема Автор DL S | L
Фильмы с авторской озвучкой [ 1.48 GB ] Пол: Секретный материальчик / Пол / Paul [2011 WEBRip] [Театральная версия / Theatrical Cut] [Open Matte] [AVO] killermax2013 Скачать
1 | 0
Фильмы (WEB-DL 720p, 1080p) [ 5.57 GB ] Пол: Секретный материальчик / Пол / Paul [2011 WEB-DL 1080p] [Open Matte] [Театральная версия / Theatrical Cut] 2x[Dub] + 2x[AVO] + [Ukr] killermax2013 Скачать
6 | 0
Фильмы (HD 720p, 1080p) (48-60 fps) [ 3.27 GB ] Пол: Секретный материальчик / Paul [2011 BDRip 720p 60fps от еnvy / NNNB] DUB еnvy Скачать
3 | 0
Фильмы 2011 [ 1.37 GB ] Пол: Секретный материальчик / Paul [2011 HDRip лицензия] Lil Badun Скачать
1 | 0
Фильмы (Blu-ray, BD-Remux, HDDVD) [ 17.97 GB ] Пол: Секретный материальчик / Paul [2011 BD-Remux ] от R.G. HD-Films Seedtank Скачать
1 | 0
Фильмы 2011 [ 2.05 GB ] Пол: Секретный материальчик / Paul [2011 BDRip лицензия] SD Скачать
1 | 0
Фильмы [HD 720p, 1080p] (Хороший звук DUB, MVO) [ 6.51 GB ] Пол: Секретный материальчик / Paul [EXTENDED CUT] [2011 BDRip 720p лицензия] Ke$h@ Скачать
1 | 0

28-11-2019 20:33  

Отключить всю рекламу на сайте

    Дорогой пользователь! Огромная просьба, поблагодарите релизера, оцените раздачу и оставьте свои комментарий, если Вы скачали Секретный материальчик через торрент бесплатно! Внесите свою лепту в развитие PiratBit!
    Комментировать посты могут только пользователи прошедшие не сложную регистрацию
    Показать сообщения:    

    Секретный материальчик через торрент
    Скачать бесплатно Секретный материальчик
    Секретный материальчик скачать торрент
    Секретный материальчик смотреть онлайн
    Cкачать фильм Секретный материальчик бесплатно
    Секретный материальчик скачать торрент в хорошем качестве
    Секретный материальчик смотреть онлайн бесплатно в хорошем качестве


    Вы не можете начинать темы
    Вы не можете отвечать на сообщения
    Вы не можете редактировать свои сообщения
    Вы не можете удалять свои сообщения
    Вы не можете голосовать в опросах
    Вы не можете прикреплять файлы к сообщениям
    Вы можете скачивать файлы