Ссылка на приватное зеркало нашего сайта всего за 1$. Внимание количество ограничено!!!

2 сезон

iTunes

1 сезон

1

iTunes

iTunes

iTunes

1 сезон

RePack

30

ИГРА 18+

pack

ВАЖНО

!!Акция!!

Alien_RageХит недели

RePack

MK11
pack

Забери бонус

RePack

jed

!!Акция!!

Alien_Rage

RePack

fifa19

RePack

Assassins Creed: Odyssey

RePack

NEED FOR SPEED™ PAYBACK

4 сезон

9 сезон

Бесстыжие 9 сезон

Все сериалы

все сериалы на PB.wtf

RePack

FAR CRY 5
  

Сумасшедшая езда / Drive Angry (Патрик Люссье) [2011 г., фэнтези, боевик, триллер, BDRip 1080р] pb.wtf

Сумасшедшая езда через торрент pb.wtf

Размер: 10.06 GB | Добавлен: 9 лет 4 мес. назад | Торрент скачан:258 раз
Скачать  

21-06-2011 21:12 Сумасшедшая езда Скачать торрент  

Сумасшедшая езда
Drive Angry

Год выпуска: 2011
Страна: США
Жанр: фэнтези, боевик, триллер
Продолжительность: 01:44:29
Перевод: дублированный [лицензия]

Cубтитры: русские [R5, Goblin], английские
Оригинальная аудиодорожка: английский

Режиссер: Патрик Люссье

В ролях: Николас Кейдж, Эмбер Хёрд, Уильям Фихтнер, Дэвид Морс, Билли Бёрк, Тодд Фармер, Криста Кэмпбелл, Шарлотта Росс, Том Аткинс, Джек МакГи

Описание: В центре событий герой, идущий по следу негодяев, убивших его дочь. Главный герой «слетает с катушек», прыгает за руль своего автомобиля и начинает мстить, оставляя по обочинам дороги трупы похитителей.

Семпл

Качество: BDRip 1080р
Формат: MKV
Видео кодек: AVC
Аудио кодек: AC3
Видео: 11.5 mb/s, 1920x1080, 23.976 fps, V_MPEG4/ISO/AVC
Аудио: AC3, 384 kb/s, 5.1, 48 kHz, 16 bits [rus]
Аудио 2: AC3, 384 kb/s, 5.1, 48 kHz, 16 bits [ukr]
Аудио 3: DTS, 1510 kb/s, 5.1, 48 kHz, 24 bits [eng]
Формат субтитров: softsub [SRT]
Complete name : Drive.Angry.2011.D.BDRip.1080p.mkv
Format : Matroska
File size : 10.1 GiB
Duration : 1h 44mn
Overall bit rate : 13.8 Mbps
Writing library : libebml v0.8.0 + libmatroska v0.9.0

Video
ID : 1
Format : AVC
Format/Info : Advanced Video Codec
Format profile : High@L4.1
Format settings, CABAC : Yes
Format settings, ReFrames : 4 frames
Codec ID : V_MPEG4/ISO/AVC
Duration : 1h 44mn
Bit rate : 11.5 Mbps
Width : 1 920 pixels
Height : 1 080 pixels
Display aspect ratio : 16:9
Frame rate : 23.976 fps
Color space : YUV
Chroma subsampling : 4:2:0
Bit depth : 8 bits
Scan type : Progressive
Bits/(Pixel*Frame) : 0.231
Stream size : 8.20 GiB (81%)
Title : Drive.Angry.2011.BluRay.1080p.DTS.x264-CHD
Writing library : x264 core 114 r1924 08d04a4
Encoding settings : cabac=1 / ref=4 / deblock=1:-3:-3 / analyse=0x3:0x113 / me=umh / subme=10 / psy=1 / psy_rd=1.05:0.10 / mixed_ref=1 / me_range=32 / chroma_me=1 / trellis=2 / 8x8dct=1 / cqm=2 / deadzone=21,11 / fast_pskip=0 / chroma_qp_offset=-2 / threads=12 / sliced_threads=0 / nr=0 / decimate=1 / interlaced=0 / constrained_intra=0 / bframes=6 / b_pyramid=2 / b_adapt=2 / b_bias=0 / direct=3 / weightb=1 / open_gop=0 / weightp=2 / keyint=250 / keyint_min=23 / scenecut=40 / intra_refresh=0 / rc_lookahead=50 / rc=2pass / mbtree=1 / bitrate=11502 / ratetol=1.0 / qcomp=0.70 / qpmin=1 / qpmax=63 / qpstep=4 / cplxblur=20.0 / qblur=0.5 / vbv_maxrate=40000 / vbv_bufsize=40000 / nal_hrd=none / ip_ratio=1.40 / aq=2:0.90
Language : English

Audio #1
ID : 2
Format : AC-3
Format/Info : Audio Coding 3
Mode extension : CM (complete main)
Codec ID : A_AC3
Duration : 1h 44mn
Bit rate mode : Constant
Bit rate : 384 Kbps
Channel(s) : 6 channels
Channel positions : Front: L C R, Side: L R, LFE
Sampling rate : 48.0 KHz
Bit depth : 16 bits
Stream size : 287 MiB (3%)
Title : R5
Language : Russian

Audio #2
ID : 3
Format : AC-3
Format/Info : Audio Coding 3
Mode extension : CM (complete main)
Codec ID : A_AC3
Duration : 1h 44mn
Bit rate mode : Constant
Bit rate : 384 Kbps
Channel(s) : 6 channels
Channel positions : Front: L C R, Side: L R, LFE
Sampling rate : 48.0 KHz
Bit depth : 16 bits
Stream size : 287 MiB (3%)
Title : R5
Language : Ukrainian

Audio #3
ID : 4
Format : DTS
Format/Info : Digital Theater Systems
Codec ID : A_DTS
Duration : 1h 44mn
Bit rate mode : Constant
Bit rate : 1 510 Kbps
Channel(s) : 6 channels
Channel positions : Front: L C R, Side: L R, LFE
Sampling rate : 48.0 KHz
Bit depth : 24 bits
Stream size : 1.10 GiB (11%)
Title : Original
Language : English

Text #1
ID : 5
Format : UTF-8
Codec ID : S_TEXT/UTF8
Codec ID/Info : UTF-8 Plain Text
Title : Russian R5
Language : Russian

Text #2
ID : 6
Format : UTF-8
Codec ID : S_TEXT/UTF8
Codec ID/Info : UTF-8 Plain Text
Title : Russian Goblin
Language : Russian

Text #3
ID : 7
Format : UTF-8
Codec ID : S_TEXT/UTF8
Codec ID/Info : UTF-8 Plain Text
Title : English
Language : English
pb.wtf



Скачать Сумасшедшая езда через торрент http://i3.imageban.ru/out/2011/06/21/14573d8593d07d004a7cc2df00553448.png Скачать фильм Сумасшедшая езда через торрент бесплантно в хорошем качестве Описание: В центре событий герой, идущий по следу негодяев, убивших его дочь. Главный герой «слетает с катушек», прыгает за руль своего ... 10 10 3
Info! Золотая раздача, скачанное не засчитывается.
Торрент: Зарегистрирован [2011-06-21 21:12] · скачан: 258 раз
Статус: √ проверено
Размер: 10.06 GB
Как cкачать? Как скачать Сумасшедшая езда через торрент | qTorrent

% Раздел Тема Автор DL S | L
Фильмы 2011 [ 2.18 GB ] Сумасшедшая езда / Drive Angry [2011 BDRip] DUB bober100 Скачать
1 | 0
Фильмы (HD 720p, 1080p) (48-60 fps) [ 6.13 GB ] Сумасшедшая езда / Drive Angry [2010 BDRip 720p ] 60fps от mimok mimok Скачать
1 | 0
Фильмы 2010 [ 1.45 GB ] Сумасшедшая езда / Drive Angry [2010 BDRip DUB] кэп Скачать
1 | 0
Фильмы [HD 720p, 1080p] (Хороший звук DUB, MVO) [ 7.57 GB ] Сумасшедшая езда / Drive Angry [2010 BDRip 720p лицензия] Ke$h@ Скачать
1 | 0
3D Фильмы [ 7.61 GB ] Сумасшедшая езда в 3D / Drive Angry 3D [2011 BDrip-AVC] Anaglyph DUBois/ Анаглиф Дюбуа L_E_X Скачать
1 | 0
Фильмы 2011 [ 702 MB ] Сумасшедшая езда / Drive Angry [2011 HDRip лицензия] 700 mb SD Скачать
1 | 0
3D Фильмы [ 1.57 GB ] Сумасшедшая езда 3Д / Drive Angry 3D [2011 HDrip] Anaglyph / Анаглиф slaventi-69 Скачать
1 | 0

28-11-2019 20:33  

Отключить всю рекламу на сайте

    Дорогой пользователь! Огромная просьба, поблагодарите релизера, оцените раздачу и оставьте свои комментарий, если Вы скачали Сумасшедшая езда через торрент бесплатно! Внесите свою лепту в развитие PiratBit!
    Комментировать посты могут только пользователи прошедшие не сложную регистрацию
    Показать сообщения:    

    Сумасшедшая езда через торрент
    Скачать бесплатно Сумасшедшая езда
    Сумасшедшая езда скачать торрент
    Сумасшедшая езда смотреть онлайн
    Cкачать фильм Сумасшедшая езда бесплатно
    Сумасшедшая езда скачать торрент в хорошем качестве
    Сумасшедшая езда смотреть онлайн бесплатно в хорошем качестве


    Вы не можете начинать темы
    Вы не можете отвечать на сообщения
    Вы не можете редактировать свои сообщения
    Вы не можете удалять свои сообщения
    Вы не можете голосовать в опросах
    Вы не можете прикреплять файлы к сообщениям
    Вы можете скачивать файлы