1 сезон

3 сезон

iTunes

1

Line

MVO

iTunes

13

1 сезон

RePack

30

Deluxe

pack

Лицензия

ВАЖНО

ИГРА 18+

pack

RePack

MK11

RePack

jed

RePack

fifa19

RePack

RDR2

RePack

NEED FOR SPEED™ PAYBACK

4 сезон

9 сезон

Бесстыжие 9 сезон

Все сериалы

все сериалы на PB.wtf

RePack

FAR CRY 5

Anonymous, добрый вечер, мы катастрофически не успеваем собрать деньги на оплату серверов, помогите нам пожалуйста 5,10,15р., для нас важна любая помощь . В качестве благодарности мы отключим Вам всю рекламу на сайте (укажите свой ник в строку Ваше имя)!

×
  
Magnet ссылка

Неизвестный / Unknown (Жауме Серра / Jaume Collet-Serra) [2011, США, Германия, Канада, Франция, Япония, Великобритания, триллер, драма, детектив, DVD9] R5 «CP-Digital» pb.wtf

Неизвестный через торрент pb.wtf

Размер: 5.32 GB | Добавлен: 10 лет назад | Торрент скачан:45 раз
Скачать  

22-06-2011 07:40 Неизвестный Скачать торрент  


Неизвестный / Unknown
«Верни себе свою жизнь»
Страна: США, Германия, Канада, Франция, Япония, Великобритания
Студия: Canadian Film or Video Production Tax Credit (CPTC), Canal+ [fr], Dark Castle Entertainment, Davis-Films, Deutscher Filmfoerderfonds (DFFF), Eurimages, IFF/CINV, Magic Light Pictures, Medienboard Berlin-Brandenburg, Optimum Releasing, Studio Babelsberg, Studio Canal, Téléfilm Canada, TF1 Films Production, ZDF/Arte
Жанр: триллер, драма, детектив
Год выпуска: 2011
Мировая премьера: 16 февраля 2011
Российская премьера: 17 февраля 2011, «Каро-Премьер»
Дата выхода DVD: 7 июля 2011, «CP-Digital»
Продолжительность: 01:52:46
Перевод: Профессиональный (дублированный) [Лицензия]
Cубтитры: русские, английские
Оригинальная аудиодорожка: английский
Режиссер: Жауме Серра / Jaume Collet-Serra
В ролях: Лиам Нисон, Дайан Крюгер, Дженьюэри Джонс, Эйдан Куинн, Бруно Ганц, Фрэнк Ланджелла, Себастьян Кох, Оливье Шнайдер, Стипе Эрчег, Райнер Бок
Описание: В этом фильме рассказывается о мужчине, который после пробуждения от комы обнаруживает, что его личность присвоена другим, и понимает, что никто, даже собственная жена, не верит ему. И тогда при помощи незнакомой молодой женщины-таксистки герой стремится доказать, кто он такой.
Бонусы: Фильм о фильме

Качество: DVD9 R5
Формат: DVD-Video
Видео кодек: MPEG2
Аудио кодек: AC3
Видео: PAL 16:9 (720x576(0.529)) MPEG Video,25,000 кадр/сек, 5480 Кбит/сек
Аудио #1: English (Dolby AC3, 6 ch) 384 Кбит/сек, 48,0 КГц
Аудио #2: Russian (Dolby AC3, 6 ch) 384 Кбит/сек, 48,0 КГц
Аудио #3: Ukrainian (Dolby AC3, 6 ch) 384 Кбит/сек, 48,0 КГц



Title: Мой диск
Size: 5.32 Gb ( 5 578 902 KBytes ) - DVD-9
Enabled regions: 1, 2, 3, 4, 5, 6, 7, 8

VTS_01 :
Play Length: 01:48:33+00:04:13
Video: PAL 16:9 (720x576) VBR, Auto Letterboxed
Audio:
English (Dolby AC3, 6 ch)
Russian (Dolby AC3, 6 ch)
Ukrainian (Dolby AC3, 6 ch)
English (Dolby AC3, 2 ch)
Subtitles:
English
Russian
Russian

VTS_02 :
Play Length: 00:00:10+00:00:12
Video: PAL 16:9 (720x576) VBR, Auto Letterboxed
Audio:
Not specified (Dolby AC3, 6 ch)
Subtitles:
Not specified
Общее
Полное имя : F:\Новинки 2011\Neizvesniy.2011.DVD9\VIDEO_TS\VTS_01_1.VOB
Формат : MPEG-PS
Размер файла : 1024 Мбайт
Продолжительность : 21 м.
Общий поток : 6767 Кбит/сек

Видео
Идентификатор : 224 (0xE0)
Формат : MPEG Video
Версия формата : Version 2
Профиль формата : Main@Main
Параметр BVOP формата : Да
Параметр матрицы формата : Выборочная
Параметры GOP формата : M=2, N=12
Продолжительность : 21 м.
Вид битрейта : Переменный
Битрейт : 5480 Кбит/сек
Номинальный битрейт : 9800 Кбит/сек
Ширина : 720 пикс.
Высота : 576 пикс.
Соотношение сторон : 16:9
Частота кадров : 25,000 кадр/сек
Стандарт вещания : PAL
Цветовое пространство : YUV
Подвыборка цветности : 4:2:0
Битовая глубина : 8 бит
Тип развёртки : Чересстрочная
Порядок развёртки : Верхнее поле первое
Метод сжатия : С потерями
Бит/(Пиксели*Кадры) : 0.529
Размер потока : 829 Мбайт (81%)

Аудио #1
Идентификатор : 189 (0xBD)-128 (0x80)
Формат : AC-3
Формат/Информация : Audio Coding 3
Расширение режима : CM (complete main)
Режим смешивания : DVD-Video
Продолжительность : 21 м.
Вид битрейта : Постоянный
Битрейт : 384 Кбит/сек
Каналы : 6 каналов
Расположение каналов : Front: L C R, Side: L R, LFE
Частота : 48,0 КГц
Битовая глубина : 16 бит
Метод сжатия : С потерями
Размер потока : 58,1 Мбайт (6%)

Аудио #2
Идентификатор : 189 (0xBD)-129 (0x81)
Формат : AC-3
Формат/Информация : Audio Coding 3
Расширение режима : CM (complete main)
Режим смешивания : DVD-Video
Продолжительность : 21 м.
Вид битрейта : Постоянный
Битрейт : 384 Кбит/сек
Каналы : 6 каналов
Расположение каналов : Front: L C R, Side: L R, LFE
Частота : 48,0 КГц
Битовая глубина : 16 бит
Метод сжатия : С потерями
Размер потока : 58,1 Мбайт (6%)

Аудио #3
Идентификатор : 189 (0xBD)-130 (0x82)
Формат : AC-3
Формат/Информация : Audio Coding 3
Расширение режима : CM (complete main)
Режим смешивания : DVD-Video
Продолжительность : 21 м.
Вид битрейта : Постоянный
Битрейт : 384 Кбит/сек
Каналы : 6 каналов
Расположение каналов : Front: L C R, Side: L R, LFE
Частота : 48,0 КГц
Битовая глубина : 16 бит
Метод сжатия : С потерями
Размер потока : 58,1 Мбайт (6%)










pb.wtf



Скачать Неизвестный через торрент http://i2.imageban.ru/out/2011/06/22/a58e027b9eb6b31a3354a6f63e0ee566.jpg Скачать фильм Неизвестный через торрент бесплантно в хорошем качестве Описание: В этом фильме рассказывается о мужчине, который после пробуждения от комы обнаруживает, что его личность присвоена другим, и ... 5 10 2
Info! Золотая раздача, скачанное не засчитывается.
Торрент: Зарегистрирован [2011-06-22 07:40] · скачан: 45 раз
Статус: √ проверено
Размер: 5.32 GB
Как cкачать? Как скачать Неизвестный через торрент | UTorrent

28-11-2019 20:33  

Отключить всю рекламу на сайте

    Дорогой пользователь! Огромная просьба, поблагодарите релизера, оцените раздачу и оставьте свои комментарий, если Вы скачали Неизвестный через торрент бесплатно! Внесите свою лепту в развитие PiratBit!
    Комментировать посты могут только пользователи прошедшие не сложную регистрацию
    Показать сообщения:    

    Неизвестный через торрент
    Скачать бесплатно Неизвестный
    Неизвестный скачать торрент
    Неизвестный смотреть онлайн
    Cкачать фильм Неизвестный бесплатно
    Неизвестный скачать торрент в хорошем качестве
    Неизвестный смотреть онлайн бесплатно в хорошем качестве


    Вы не можете начинать темы
    Вы не можете отвечать на сообщения
    Вы не можете редактировать свои сообщения
    Вы не можете удалять свои сообщения
    Вы не можете голосовать в опросах
    Вы не можете прикреплять файлы к сообщениям
    Вы можете скачивать файлы