Ссылка на приватное зеркало нашего сайта всего за 1$. Внимание количество ограничено!!!

2 сезон

iTunes

1 сезон

1

iTunes

iTunes

iTunes

1 сезон

RePack

30

ИГРА 18+

pack

ВАЖНО

!!Акция!!

Alien_RageХит недели

RePack

MK11
pack

Забери бонус

RePack

jed

!!Акция!!

Alien_Rage

RePack

fifa19

RePack

Assassins Creed: Odyssey

RePack

NEED FOR SPEED™ PAYBACK

4 сезон

9 сезон

Бесстыжие 9 сезон

Все сериалы

все сериалы на PB.wtf

RePack

FAR CRY 5
  

Призрачный гонщик / Ghost Rider (Марк Стивен Джонсон) [2007 г., Фэнтези, боевик, триллер, BDRip 1080р] pb.wtf

Призрачный гонщик через торрент pb.wtf

Размер: 12.7 GB | Добавлен: 9 лет 4 мес. назад | Торрент скачан:468 раз
Скачать  

24-06-2011 17:26 Призрачный гонщик Скачать торрент  

Призрачный гонщик
Ghost Rider


«Когда-то он заключил сделку во имя любви»



Год выпуска: 2007
Страна: США, Австралия
Жанр: Фэнтези, боевик, триллер
Продолжительность: 02:03:25

Перевод: Дублированный (многоголосые вставки на расширенные сцены) / Профессиональный многоголосый / Профессиональный двухголосый (Гланц и Королева) / Авторский одноголосый (В. Королев)

Субтитры: Английские (вшитые однострочные форсированные)

Режиссер: Марк Стивен Джонсон

В ролях: Николас Кейдж, Ева Мендес, Мэтт Лонг, Рэкуэл Алесси, Бретт Каллен, Питер Фонда, Донал Лог, Тони Гоустхок, Хью Секстон, Маркус Джонс, Мэтт Норман, Лоуренс Камерон Стил, Уэс Бентли, Эдди Бару, Джессика Нэпиер, Лоуренс Брюлс, Дэниэл Фредериксен, Мэттью Уилкинсон, Керсти Хаттон, Гибсон Нолт, Райан Джонсон, Сэм Эллиотт, Питер Каллэн, Джоэль Тобек

Описание: Чтобы спасти своего отца от верной гибели, байкер-экстремал Джонни Блэйз заключает сделку с дьяволом, объектом которой является его бессмертная душа. Проходят годы, и дьявол предъявляет свои права по контракту. Он превращает Джонни в Призрачного Гонщика, агента потусторонних сил, обладающего сверхчеловеческими способностями. С наступлением ночи он проносится по городу на своем «адском» Харлее и собирает людскую «дань» для своего нового хозяина. И хотя контракт - бессрочный, и колесить бы ему до конца своих дней, оставляя огненный след на темных улицах, но светлая сторона главного героя все-таки одерживает победу над силами тьмы.

Семпл

by WhiteHorse

Качество: BDRip 1080р
Формат: MKV
Видео кодек: AVC
Аудио кодек: AC3
Видео: AVC, 12.0 Mbps, 1920 x 800 pixels, 23.976 fps, Bits/(Pixel*Frame) : 0.326
Audio #1 AC-3, 448 Kbps, 2 channels, 48.0 KHz : ru
Audio #2 AC-3, 640 Kbps, 6 channels, 48.0 KHz : ru
Audio #3 AC-3, 448 Kbps, 6 channels, 48.0 KHz : ru
Audio #4 AC-3, 448 Kbps, 6 channels, 48.0 KHz : ru
Audio #5 DTS, 755 Kbps, 6 channels, 48.0 KHz : en
Complete name Prizrachnij.gonshik.2007.x264.BDRip.1080p.mkv
Format : Matroska
File size : 12.7 GiB
Duration : 2h 3mn
Overall bit rate : 14.7 Mbps
Encoded date : UTC 2011-03-11 15:53:32
Writing application : mkvmerge v4.4.0
Writing library : libebml v1.0.0 + libmatroska v1.0.0

Video
ID : 1
Format : AVC
Format/Info : Advanced Video Codec
Format profile : High@L4.1
Format settings, CABAC : Yes
Format settings, ReFrames : 4 frames
Codec ID : V_MPEG4/ISO/AVC
Duration : 2h 3mn
Bit rate : 12.0 Mbps
Width : 1 920 pixels
Height : 800 pixels
Display aspect ratio : 2.40:1
Frame rate : 23.976 fps
Color space : YUV
Chroma subsampling : 4:2:0
Bit depth : 8 bits
Scan type : Progressive
Bits/(Pixel*Frame) : 0.326
Stream size : 10.1 GiB (79%)
Title : Призрачный гонщик
Writing library : x264 core 92 r1510 33d382a
Encoding settings : cabac=1 / ref=4 / deblock=1:-1:-1 / analyse=0x3:0x133 / me=umh / subme=9 / psy=1 / psy_rd=1.00:0.10 / mixed_ref=1 / me_range=32 / chroma_me=1 / trellis=2 / 8x8dct=1 / cqm=0 / deadzone=21,11 / fast_pskip=0 / chroma_qp_offset=-3 / threads=3 / sliced_threads=0 / nr=0 / decimate=1 / interlaced=0 / constrained_intra=0 / bframes=3 / b_pyramid=2 / b_adapt=2 / b_bias=0 / direct=3 / wpredb=1 / wpredp=2 / keyint=250 / keyint_min=25 / scenecut=40 / intra_refresh=0 / rc_lookahead=50 / rc=2pass / mbtree=1 / bitrate=12000 / ratetol=1.0 / qcomp=0.60 / qpmin=10 / qpmax=51 / qpstep=4 / cplxblur=20.0 / qblur=0.5 / ip_ratio=1.40 / aq=1:1.00

Audio #1
ID : 2
Format : AC-3
Format/Info : Audio Coding 3
Mode extension : CM (complete main)
Codec ID : A_AC3
Duration : 2h 3mn
Bit rate mode : Constant
Bit rate : 448 Kbps
Channel(s) : 2 channels
Channel positions : Front: L R
Sampling rate : 48.0 KHz
Bit depth : 16 bits
Compression mode : Lossy
Stream size : 395 MiB (3%)
Title : Дублированный+МПвставки, AC3, 6ch, 448 Кбит
Language : Russian

Audio #2
ID : 3
Format : AC-3
Format/Info : Audio Coding 3
Mode extension : CM (complete main)
Codec ID : A_AC3
Duration : 2h 3mn
Bit rate mode : Constant
Bit rate : 640 Kbps
Channel(s) : 6 channels
Channel positions : Front: L C R, Side: L R, LFE
Sampling rate : 48.0 KHz
Bit depth : 16 bits
Compression mode : Lossy
Stream size : 565 MiB (4%)
Title : Многоголосый, AC3, 6ch, 640 Кбит
Language : Russian

Audio #3
ID : 4
Format : AC-3
Format/Info : Audio Coding 3
Mode extension : CM (complete main)
Codec ID : A_AC3
Duration : 2h 3mn
Bit rate mode : Constant
Bit rate : 448 Kbps
Channel(s) : 6 channels
Channel positions : Front: L C R, Side: L R, LFE
Sampling rate : 48.0 KHz
Bit depth : 16 bits
Compression mode : Lossy
Stream size : 395 MiB (3%)
Title : Двухголосый (Гланц и Королева), AC3, 6ch, 448 Кбит
Language : Russian

Audio #4
ID : 5
Format : AC-3
Format/Info : Audio Coding 3
Mode extension : CM (complete main)
Codec ID : A_AC3
Duration : 2h 3mn
Bit rate mode : Constant
Bit rate : 448 Kbps
Channel(s) : 6 channels
Channel positions : Front: L C R, Side: L R, LFE
Sampling rate : 48.0 KHz
Bit depth : 16 bits
Compression mode : Lossy
Stream size : 395 MiB (3%)
Title : Авторский (Королев), AC3, 6ch, 448 Кбит
Language : Russian

Audio #5
ID : 6
Format : DTS
Format/Info : Digital Theater Systems
Codec ID : A_DTS
Duration : 2h 3mn
Bit rate mode : Constant
Bit rate : 755 Kbps
Channel(s) : 6 channels
Channel positions : Front: L C R, Side: L R, LFE
Sampling rate : 48.0 KHz
Bit depth : 24 bits
Compression mode : Lossy
Stream size : 666 MiB (5%)
Title : original [dts 6ch 755 kbps];
Language : English
pb.wtf



Скачать Призрачный гонщик через торрент http://i2.imageban.ru/out/2011/06/24/a3988083f571b91448abd9ec0ff19290.png Скачать фильм Призрачный гонщик через торрент бесплантно в хорошем качестве Описание: Чтобы спасти своего отца от верной гибели, байкер-экстремал Джонни Блэйз заключает сделку с дьяволом, объектом которой является ... 10 10 6
Info! Золотая раздача, скачанное не засчитывается.
Торрент: Зарегистрирован [2011-06-24 17:26] · скачан: 468 раз
Статус: √ проверено
Размер: 12.7 GB
Как cкачать? Как скачать Призрачный гонщик через торрент | qTorrent

% Раздел Тема Автор DL S | L
3D Фильмы [ 14.41 GB ] Призрачный гонщик 2 в 3Д / Ghost Rider: Spirit of Vengeance 3D [2011 BDRip 1080p] OverUnder / Вертикальная стереопара serega768 Скачать
1 | 0
Фильмы (Blu-ray, BD-Remux, HDDVD) [ 17.18 GB ] Призрачный гонщик 2 / Ghost Rider: Spirit of Vengeance [2011 BDRemux DUB ] Mr. Freeman Скачать
1 | 0
3D Фильмы [ 6.6 GB ] Призрачный Гонщик 2 в 3D / Ghost Rider: Spirit of Vengeance 3D [2011 BDRip 1080p MVO лицензия] fragmaster Скачать
1 | 1
3D Фильмы [ 7.5 GB ] Призрачный гонщик 2 3D / Ghost Rider: Spirit of Vengeance 3D [2011 BDRip DUB ] Anaglyph red'cyan serega768 Скачать
1 | 0
Фильмы 2011 [ 1.45 GB ] Призрачный гонщик 2 / Ghost Rider: Spirit of Vengeance [2011 BDRip DUB от HQ-ViDEO] ~Relizer~ Скачать
1 | 0
Фильмы (DVD фильмы) [ 6.08 GB ] Призрачный гонщик 2 / Ghost Rider: Spirit of Vengeance [2011 DVD9] R5 voovaz Скачать
1 | 0
Фильмы 2011 [ 1.46 GB ] Призрачный гонщик 2 / Ghost Rider: Spirit of Vengeance [2011 BDRip-AVC] DUB |лицензия| Mr. Freeman Скачать
1 | 0

28-11-2019 20:33  

Отключить всю рекламу на сайте

19-02-2012 08:16 Призрачный гонщик Скачать торрент  

Раздайте плиз!pb.wtf



26-04-2012 16:04 Призрачный гонщик Скачать торрент  

Превод говно прыгает с одного на другойpb.wtf



    Дорогой пользователь! Огромная просьба, поблагодарите релизера, оцените раздачу и оставьте свои комментарий, если Вы скачали Призрачный гонщик через торрент бесплатно! Внесите свою лепту в развитие PiratBit!
    Комментировать посты могут только пользователи прошедшие не сложную регистрацию
    Показать сообщения:    

    Призрачный гонщик через торрент
    Скачать бесплатно Призрачный гонщик
    Призрачный гонщик скачать торрент
    Призрачный гонщик смотреть онлайн
    Cкачать фильм Призрачный гонщик бесплатно
    Призрачный гонщик скачать торрент в хорошем качестве
    Призрачный гонщик смотреть онлайн бесплатно в хорошем качестве


    Вы не можете начинать темы
    Вы не можете отвечать на сообщения
    Вы не можете редактировать свои сообщения
    Вы не можете удалять свои сообщения
    Вы не можете голосовать в опросах
    Вы не можете прикреплять файлы к сообщениям
    Вы можете скачивать файлы