Ссылка на приватное зеркало нашего сайта всего за 1$. Внимание количество ограничено!!!

2 сезон

iTunes

1 сезон

1

2 сезон

2 сезон

iTunes

1 сезон

RePack

30

Новинка

ВАЖНО

ИГРА 18+

pack

RePack

MK11
pack

Забери бонус

RePack

jed

!!Акция!!

Alien_Rage

RePack

fifa19

RePack

Assassins Creed: Odyssey

RePack

NEED FOR SPEED™ PAYBACK

4 сезон

9 сезон

Бесстыжие 9 сезон

Все сериалы

все сериалы на PB.wtf

RePack

FAR CRY 5
  

Белый воротничок / White Collar/Сезон: 3/ Серия 1-16 из16 (Джон Т. Кречмер, Кевин Брэй, Дэнни Гордон) [2011 г., драма, криминал, детектив, WEB-DLRip] pb.wtf

Белый воротничок через торрент pb.wtf

Размер: 6.25 GB | Добавлен: 8 лет 8 мес. назад | Торрент скачан:247 раз
Скачать  

26-06-2011 16:54 Белый воротничок Скачать торрент  

Белый воротничок / White Collar
Сезон 3/ Серия 1-16 из 16


Год выпуска: 2011
Страна: США
Жанр: драма, криминал, детектив
Продолжительность: ~ 00:44:00
Перевод: Профессиональный (двухголосый, закадровый) /NewStudio/

Режиссер: Джон Т. Кречмер, Кевин Брэй, Дэнни Гордон
Сценарий:Джефф Истен, Джо Хендерсон, Джим Камполонго

IMDB 8.6/10 (3,218 votes)

В ролях: Мэттью Бомер (Neal Caffrey), Тим ДиКей (Peter Burke), Уилли Гарсон (Mozzie), Шариф Аткинс (Jones), Тиффани Тиссен (Elizabeth Burke), Натали Моралес (Lauren Cruz), Джеймс Ребхорн (Reese Hughes), Александра Даддарио (Kate), Дайан Кэрролл (June), Глория Вотсис (Alex), Ноа Эммерик (Garrett Fowler), Пайпер Кенни (OPR Agent) и др.



Описание: Сериал рассказывает о сотрудничестве гениального мошенника и агента ФБР. Нил Кэффри, невероятно обаятельный преступный ум, наконец-то был пойман своим извечным врагом, отличным агентом государственной безопасности Питером Берком. Когда Нил бежит из тюрьмы, чтобы найти свою пропавшую любовь, Питер ловит его еще раз. Нил предлагает ему не торопиться с отправкой в тюрьму, и рассмотреть возможность сотрудничества. Ведь Нил мог бы помочь словить самых “элитных” преступников, “белых воротничков” преступного мира. Питер понимает, что интуиция и преступный опыт Нила, которых нет у законопослушного агента, могут стать хорошим подспорьем в борьбе с криминалом.

Качество: WEB-DLRip
Формат: AVI
Видео кодек: XviD
Аудио кодек: MP3
Видео: 624*352 (1.77), 23.976 fps, XviD MPEG-4, ~1037 kbps, 0.20 bit/pixe
Аудио #1: 48 kHz, MPEG Layer 3, 2 ch, ~128 kbps avg / NewStudio /
Аудио #2: 48 kHz, MPEG Layer 3, 2 ch, ~128 kbps avg / Оригинал /

Релиз от:
Над релизом работали:
Озвучка: Gutta, Caps
Перевод: Negenka
Подготовка видео: Koss
Работа со звуком: Baggio
E:\ЗАГРУЗКА\white.collar.s03.web-dl_NewStudio.TV\white.collar.s03e03.web-dl_NewStudio.TV.avi
General
Complete name : E:\ЗАГРУЗКА\white.collar.s03.web-dl_NewStudio.TV\white.collar.s03e03.web-dl_NewStudio.TV.avi
Format : AVI
Format/Info : Audio Video Interleave
File size : 400 MiB
Duration : 42mn 53s
Overall bit rate : 1 304 Kbps
Writing application : VirtualDubMod 1.5.10.2 (build 2540/release)
Writing library : VirtualDubMod build 2540/release
Video #0
ID : 0
Format : MPEG-4 Visual
Format profile : Advanced Simple@L5
Format settings, BVOP : Yes
Format settings, QPel : No
Format settings, GMC : No warppoints
Format settings, Matrix : Default (MPEG)
Codec ID : XVID
Codec ID/Hint : XviD
Duration : 42mn 53s
Bit rate : 1 029 Kbps
Width : 624 pixels
Height : 352 pixels
Display aspect ratio : 16:9
Frame rate : 23.976 fps
Resolution : 8 bits
Colorimetry : 4:2:0
Scan type : Progressive
Bits/(Pixel*Frame) : 0.195
Stream size : 316 MiB (79%)
Writing library : XviD 64
Audio #1
ID : 1
Format : MPEG Audio
Format version : Version 1
Format profile : Layer 3
Format_Settings_Mode : Joint stereo
Format_Settings_ModeExtension : MS Stereo
Codec ID : 55
Codec ID/Hint : MP3
Duration : 42mn 53s
Bit rate mode : Constant
Bit rate : 128 Kbps
Channel(s) : 2 channels
Sampling rate : 48.0 KHz
Stream size : 39.3 MiB (10%)
Alignment : Aligned on interleaves
Interleave, duration : 42 ms (1.00 video frame)
Interleave, preload duration : 504 ms
Audio #2
ID : 2
Format : MPEG Audio
Format version : Version 1
Format profile : Layer 3
Format_Settings_Mode : Joint stereo
Format_Settings_ModeExtension : MS Stereo
Codec ID : 55
Codec ID/Hint : MP3
Duration : 42mn 53s
Bit rate mode : Variable
Bit rate : 130 Kbps
Nominal bit rate : 128 Kbps
Channel(s) : 2 channels
Sampling rate : 48.0 KHz
Stream size : 39.9 MiB (10%)
Alignment : Aligned on interleaves
Interleave, duration : 24 ms (0.58 video frame)
Interleave, preload duration : 141 ms
Writing library : LAME3.90.
Encoding settings : -m j -V 4 -q 2 -lowpass 17.6 --abr 128
- 07.06.2011 - 01 - Под колпаком / On Guard (10.06.2011)
- 14.06.2011 - 02 - В поисках завещания / Where There's a Will (22.06.2011)
- 21.06.2011 - 03 - На пределе / Deadline (26.06.2011)
- 28.06.2011 - 04 - Детройский стоматолог / Dentist of Detroit (05.07.2011)
- 05.07.2011 - 05 - Скрытая угроза / Veiled Threat (09.07.2011)
- 12.07.2011 - 06 - Сухим из воды / Scott Free (17.07.2011)
- 19.07.2011 - 07 - Изымая средства / Taking Account (27.07.2011)
- 26.07.2011 - 08 - Посылка из прошлого / As You Were (31.07.2011)
- 02.08.2011 - 09 - В ожидании бури / On the Fence (09.08.2011)
- 09.08.2011 - 10 - Обратный отсчёт / Countdown (17.08.2011)
- 17.01.2012 - 11 - Шах и мат / Checkmate (22.01.2012)
- 24.01.2012 - 12 - Однажды в Верхнем Вест-Сайде / Upper West Side Story (05.02.2012)
- 31.01.2012 - 13 - Соседский дозор / Neighborhood Watch (08.02.2012)
- 07.02.2012 - 14 - Перебирая струны / Pulling Strings (14.02.2012)
Внимание! Раздача ведётся путём добавления новых серий; при каждом добавлении создаётся новый торрент. Чтобы начать докачку новой серии, пользователям необходимо сделать следующее:
(1) остановить скачивание,
(2) удалить старый торрент у себя из клиента (старые серии удалять не надо),
(3) скачать новый торрент и запустить его у себя в клиенте вместо старого, при этом указать клиенту путь в старую папку куда и должно происходить скачивание новых серий.
Ваш клиент при этом должен произвести хеширование (проверку) старой папки (если не производит сам - помогите ему сделать это), и будет докачивать только те серии которых у вас ещё нет. Старые серии при этом не удаляются, а продолжают раздаваться!
Eсли вы уже удалили старые серии, то предотвратить повторную закачку старых серий можно, отжав галочку в соответствующих местах при запуске нового торрента. По возможности, желательно не удалять старые серии как можно дольше чтобы релизёр не столько продолжал раздавать старые серии, а смог сконцентрироваться на новых.


Добавлены 15-16 серии. Перезагрузите торрент.pb.wtf



Скачать Белый воротничок через торрент http://i23.fastpic.ru/big/2011/0626/1e/666222ca1fa4524a828f1776e6f7461e.png Скачать фильм Белый воротничок через торрент бесплантно в хорошем качестве Описание: Сериал рассказывает о сотрудничестве гениального мошенника и агента ФБР. Нил Кэффри, невероятно обаятельный преступный ум, ... 9.6 10 5
Info! Золотая раздача, скачанное не засчитывается.
Торрент: Зарегистрирован [2012-03-10 14:44] · скачан: 247 раз
Статус: √ проверено
Размер: 6.25 GB
Как cкачать? Как скачать Белый воротничок через торрент | qTorrent



Последний раз редактировалось: lyokaa (2012-03-10 14:44), всего редактировалось 24 раз(а)

28-11-2019 20:33  

Отключить всю рекламу на сайте

04-03-2012 19:44 Белый воротничок Скачать торрент  

спасибо ,а то облом с моей скоростью 20 гб качать ,а тут размерчик ,что надоpb.wtf



10-03-2012 14:45 Белый воротничок Скачать торрент  

Добавлены 15-16 серии.pb.wtf



    Дорогой пользователь! Огромная просьба, поблагодарите релизера, оцените раздачу и оставьте свои комментарий, если Вы скачали Белый воротничок через торрент бесплатно! Внесите свою лепту в развитие PiratBit!
    Комментировать посты могут только пользователи прошедшие не сложную регистрацию
    Показать сообщения:    

    Белый воротничок через торрент
    Скачать бесплатно Белый воротничок
    Белый воротничок скачать торрент
    Белый воротничок смотреть онлайн
    Cкачать фильм Белый воротничок бесплатно
    Белый воротничок скачать торрент в хорошем качестве
    Белый воротничок смотреть онлайн бесплатно в хорошем качестве


    Вы не можете начинать темы
    Вы не можете отвечать на сообщения
    Вы не можете редактировать свои сообщения
    Вы не можете удалять свои сообщения
    Вы не можете голосовать в опросах
    Вы не можете прикреплять файлы к сообщениям
    Вы можете скачивать файлы