Достать ножи: Стеклянная луковица

MVO

Добыча

Дубляж

Уэнсдэй

1 сезон

Тор

Дубляж

13 клиническая

1 сезон

Жестокая ночь

MVO

Одни из нас

1 сезон

Deluxe

pack

Рекомендуем

30

Пиратка

ВАЖНО

ВАЖНО

Ghostwire

Пиратка

jed

RePack

nioh2

RePack

RDR2

RePack

NEED FOR SPEED™ PAYBACK

RePack

скачать торрент

Кинопоиск HD

Острые козырьки 6 сезон

6 сезон

FAR CRY 6

RePack

скачать торрент

Лицензия

скачать торрент

MVO

1

1 сезон

скачать торрент

1 сезон

скачать торрент

Лицензия

  

Отчим / The Stepfather (Нельсон МакКормик) [2009 г., Триллер, детектив, BDRip 1080р]

Отчим через торрент pb.wtf

Размер: 7.79 GB | Добавлен: 11 лет назад | Торрент скачан:37 раз
Смотреть онлайн | Скачать | Поддержите нас   

26-06-2011 18:20 Отчим Скачать торрент  

Отчим
The Stepfather




Год выпуска: 2009
Страна: США
Жанр: Триллер, детектив
Продолжительность: 01:42:10
Перевод: Профессиональный многоголосый

Режиссер: Нельсон МакКормик

В ролях: Дилан Уолш, Села Уорд, Пенн Бэджли, Эмбер Херд, Шерри Стрингфилд, Пейдж Турко, Джон Тенни, Нэнси Лайнхэн Чарльз, Маркис Харрис, Браден Лемастерс

Описание: Майкл возвращается домой из военного училища и обнаруживает, что его мать живет в любви и согласии со своим новым бойфрендом, Дэвидом. Два мужчины узнают друг друга получше и Майкл начинает замечать все больше и больше странного за тем, кто подставлял плечо его матери.

Семпл

Релиз от:

Качество: BDRip 1080р
Формат: MKV
Видео кодек: AVC
Аудио кодек: AC3
Видео: AVC, 9 022 Kbps, 1920 x 800 pixels, 23.976 fps, Bits/(Pixel*Frame) : 0.245
Audio #1 AC-3, 384 Kbps, 6 channels, 48.0 KHz : ru
Audio #2 DTS, 1 510 Kbps, 6 channels, 48.0 KHz : en
Complete name Otchim.2009.x264.BDRip.(1080p).NovaLan.mkv
Format : Matroska
File size : 7.79 GiB
Duration : 1h 42mn
Overall bit rate : 10.9 Mbps
Movie name : NovaLan (Vladislav71)
Encoded date : UTC 2011-06-26 09:40:51
Writing application : mkvmerge v4.0.0 ('The Stars were mine') сборка от Jun 6 2010 16:18:42
Writing library : libebml v1.0.0 + libmatroska v1.0.0

Video
ID : 1
Format : AVC
Format/Info : Advanced Video Codec
Format profile : [email protected]
Format settings, CABAC : Yes
Format settings, ReFrames : 8 frames
Codec ID : V_MPEG4/ISO/AVC
Duration : 1h 42mn
Bit rate : 9 022 Kbps
Width : 1 920 pixels
Height : 800 pixels
Display aspect ratio : 2.40:1
Frame rate : 23.976 fps
Color space : YUV
Chroma subsampling : 4:2:0
Bit depth : 8 bits
Scan type : Progressive
Bits/(Pixel*Frame) : 0.245
Stream size : 6.28 GiB (81%)
Writing library : x264 core 92 r1510 33d382a
Encoding settings : cabac=1 / ref=8 / deblock=1:-2:-2 / analyse=0x3:0x133 / me=umh / subme=10 / psy=1 / psy_rd=1.00:0.10 / mixed_ref=1 / me_range=48 / chroma_me=1 / trellis=2 / 8x8dct=1 / cqm=0 / deadzone=21,11 / fast_pskip=0 / chroma_qp_offset=-3 / threads=3 / sliced_threads=0 / nr=0 / decimate=1 / interlaced=0 / constrained_intra=0 / bframes=8 / b_pyramid=2 / b_adapt=2 / b_bias=0 / direct=3 / wpredb=1 / wpredp=2 / keyint=250 / keyint_min=25 / scenecut=40 / intra_refresh=0 / rc=2pass / mbtree=0 / bitrate=9022 / ratetol=1.0 / qcomp=0.60 / qpmin=10 / qpmax=51 / qpstep=4 / cplxblur=20.0 / qblur=0.5 / ip_ratio=1.40 / pb_ratio=1.30 / aq=1:1.00
Language : English

Audio #1
ID : 2
Format : AC-3
Format/Info : Audio Coding 3
Mode extension : CM (complete main)
Codec ID : A_AC3
Duration : 1h 42mn
Bit rate mode : Constant
Bit rate : 384 Kbps
Channel(s) : 6 channels
Channel positions : Front: L C R, Side: L R, LFE
Sampling rate : 48.0 KHz
Bit depth : 16 bits
Compression mode : Lossy
Stream size : 281 MiB (4%)
Language : Russian

Audio #2
ID : 3
Format : DTS
Format/Info : Digital Theater Systems
Codec ID : A_DTS
Duration : 1h 42mn
Bit rate mode : Constant
Bit rate : 1 510 Kbps
Channel(s) : 6 channels
Channel positions : Front: L C R, Side: L R, LFE
Sampling rate : 48.0 KHz
Bit depth : 24 bits
Compression mode : Lossy
Stream size : 1.08 GiB (14%)
Language : English



Скачать Отчим через торрент http://i3-imageban-ru.translate.goog/out/2011/06/26/58474ca383b7fa27067a987f300974f4.png Скачать, смотреть онлайн Отчим бесплантно в хорошем качестве Описание: Майкл возвращается домой из военного училища и обнаруживает, что его мать живет в любви и согласии со своим новым бойфрендом, ... 10 10 1
Info! Золотая раздача, скачанное не засчитывается.
Торрент: Зарегистрирован [2011-06-26 18:20] · скачан: 37 раз
Статус: √ проверено
Размер: 7.79 GB
Как cкачать? Как скачать Отчим через торрент | UTorrent

% Раздел Тема Автор DL S | L
Фильмы 2009 [ 2.18 GB ] Отчим / The Stepfather | | BDRip -=BIGBOSS=- Скачать
1 | 0
Фильмы 2009 [ 700 MB ] Отчим / The Stepfather | | DVDRip war22200 Скачать
1 | 0

28-11-2019 20:33  


Отключить вcю реклaмy на сайте, в т.ч. и в плеере онлайн просмотра!

    Дорогой пользователь! Огромная просьба, поблагодарите релизера, оцените раздачу и оставьте свои комментарий, если Вы скачали Отчим через торрент бесплатно!!
    Комментировать посты могут только пользователи прошедшие не сложную регистрацию
    Показать сообщения:    


    Отчим через торрент
    Скачать бесплатно Отчим
    Отчим скачать торрент
    Отчим смотреть онлайн
    Cкачать фильм Отчим бесплатно
    Отчим скачать торрент в хорошем качестве
    Отчим смотреть онлайн бесплатно в хорошем качестве
    Вы не можете начинать темы
    Вы не можете отвечать на сообщения
    Вы не можете редактировать свои сообщения
    Вы не можете удалять свои сообщения
    Вы не можете голосовать в опросах
    Вы не можете прикреплять файлы к сообщениям
    Вы можете скачивать файлы
    Отчим / The Stepfather [2009 г., Триллер, детектив, BDRip 1080р] смотреть онлайн, скачать торрент picoco.icu