1 сезон

3 сезон

iTunes

1

iTunes

MVO

iTunes

13

1 сезон

RePack

30

Deluxe

pack

Лицензия

ВАЖНО

ИГРА 18+

pack

RePack

MK11

RePack

jed

RePack

fifa19

RePack

RDR2

RePack

NEED FOR SPEED™ PAYBACK

4 сезон

9 сезон

Бесстыжие 9 сезон

Все сериалы

все сериалы на PB.wtf

RePack

FAR CRY 5

Anonymous, добрый день, мы катастрофически не успеваем собрать деньги на оплату серверов, помогите нам пожалуйста 5,10,15р., для нас важна любая помощь . В качестве благодарности мы отключим Вам всю рекламу на сайте (укажите свой ник в строку Ваше имя)!

×
  
Magnet ссылка

Остановивший время / Suspension (Алек Джолер, Этан Шафтель / Alec Joler, Ethan Shaftel) [2008, США, фэнтези, боевик, триллер, драма, DVD5] R5 pb.wtf

Остановивший время через торрент pb.wtf

Размер: 4.33 GB | Добавлен: 10 лет назад | Торрент скачан:124 раза
Скачать  

27-06-2011 07:57 Остановивший время Скачать торрент  


Остановивший время / Suspension
«Что ты будешь делать, если сможешь остановить время?»
Страна: США
Студия: EasyAction
Жанр: фэнтези, боевик, триллер, драма
Год выпуска: 2008
Мировая премьера: 2 мая 2008
Дата выхода DVD: 23 июня 2011, «Новый Диск»
Продолжительность: 01:34:26
Перевод: Профессиональный (многоголосый закадровый) [Лицензия]
Cубтитры: нет
Оригинальная аудиодорожка: английский
Режиссер: Алек Джолер, Этан Шафтель / Alec Joler, Ethan Shaftel
В ролях: Скотт Кордес, Энни Тедеско, Кэролайн Винчигуэрра, Дэн Николс, Дэвид Фриттс, Микел Хилл, Сэм Кордес, Волтер Копэдж, Джеймс Эндрю Райт, Синтия Хайер
Описание: По сюжету фильма жена и сын главного героя погибают в автокатастрофе. Несчастный вдовец долго не может пережить их потерю, так как отныне его жизнь лишена какого-либо смысла. Однажды он решает починить старую видеокамеру, которая была в руках сына во время аварии. После починки вдовец обнаруживает, что камера обрела новое свойство. Теперь она может останавливать время. Нажал один раз на кнопку — все вокруг остановилось. Нажал еще раз — окружающий мир снова вернулся к жизни. Полезное свойство, но только оно никак не может изменить прошлое. Смерть близких лишила героя того качества, без которого мужчины жить просто не могут — ощущения, что ты контролируешь ситуацию. Волшебная камера вроде бы вернула герою иллюзию подобного контроля, но при этом еще сильнее подчеркнула его личную трагедию. В поисках спасения от душевных мук герой решил вмешаться в судьбу другого человека, пострадавшего от той же самой аварии. Другим человеком была жена погибшего водителя, который врезался в машину главного героя. Вдовец знакомится с женщиной и всячески пытается помочь ей восстановить свою жизнь. Он не хочет с ней секса или каких-либо отношений. Он хочет только мира и спокойствия. В результате, каждый вечер он приходит к ее дому, нажимает на кнопку «стоп» и открывает входную дверь. После этого заходит внутрь и проводит обычный семейный вечер. Читает газеты, моет посуду, ремонтирует какие-то предметы, пока женщины сидит в замороженном ступоре. После нескольких часов подобной идиллии герой выходит на улицу и возвращается к себе домой, предварительно нажав кнопку ‘плэй’. Герой уходит, а женщина медленно сходит с ума, замечая то, как снова изменился ее дом.
Бонусы: нет

Качество: DVD5 R5
Формат: DVD-Video
Видео кодек: MPEG2
Аудио кодек: AC3
Видео: PAL 16:9 (720x576(0.528)) MPEG Video,25,000 кадр/сек, 5470 Кбит/сек
Аудио #1: Russian (Dolby AC3, 6 ch) 384 Кбит/сек, 48,0 КГц
Аудио #2: English (Dolby AC3, 6 ch) 384 Кбит/сек, 48,0 КГц



Title: F
Size: 4.33 Gb ( 4 539 798 KBytes ) - DVD-5
Enabled regions: 1, 2, 3, 4, 5, 6, 7, 8

VTS_01 :
Play Length: 00:00:20
Video: PAL 4:3 (720x576) VBR

VTS_02 :
Play Length: 01:34:26
Video: PAL 16:9 (720x576) VBR, Auto Letterboxed
Audio:
Russian (Dolby AC3, 6 ch)
English (Dolby AC3, 6 ch)
Subtitles:
Russian
Общее
Полное имя : E:\Новинки 2011\Ostanovivshiy.vremya.2008.DVD5\VIDEO_TS\VTS_02_1.VOB
Формат : MPEG-PS
Размер файла : 1024 Мбайт
Продолжительность : 22 м.
Общий поток : 6365 Кбит/сек

Видео
Идентификатор : 224 (0xE0)
Формат : MPEG Video
Версия формата : Version 2
Профиль формата : Main@Main
Параметр BVOP формата : Да
Параметр матрицы формата : Выборочная
Продолжительность : 22 м.
Вид битрейта : Переменный
Битрейт : 5470 Кбит/сек
Номинальный битрейт : 8400 Кбит/сек
Ширина : 720 пикс.
Высота : 576 пикс.
Соотношение сторон : 16:9
Частота кадров : 25,000 кадр/сек
Стандарт вещания : PAL
Цветовое пространство : YUV
Подвыборка цветности : 4:2:0
Битовая глубина : 8 бит
Тип развёртки : Чересстрочная
Порядок развёртки : Нижнее поле первое
Метод сжатия : С потерями
Бит/(Пиксели*Кадры) : 0.528
Размер потока : 880 Мбайт (86%)

Аудио #1
Идентификатор : 189 (0xBD)-128 (0x80)
Формат : AC-3
Формат/Информация : Audio Coding 3
Расширение режима : CM (complete main)
Режим смешивания : DVD-Video
Продолжительность : 22 м.
Вид битрейта : Постоянный
Битрейт : 384 Кбит/сек
Каналы : 6 каналов
Расположение каналов : Front: L C R, Side: L R, LFE
Частота : 48,0 КГц
Битовая глубина : 16 бит
Метод сжатия : С потерями
Размер потока : 61,8 Мбайт (6%)

Аудио #2
Идентификатор : 189 (0xBD)-129 (0x81)
Формат : AC-3
Формат/Информация : Audio Coding 3
Расширение режима : CM (complete main)
Режим смешивания : DVD-Video
Продолжительность : 22 м.
Вид битрейта : Постоянный
Битрейт : 384 Кбит/сек
Каналы : 6 каналов
Расположение каналов : Front: L C R, Side: L R, LFE
Частота : 48,0 КГц
Битовая глубина : 16 бит
Метод сжатия : С потерями
Размер потока : 61,8 Мбайт (6%)










pb.wtf



Скачать Остановивший время через торрент http://i1.imageban.ru/out/2011/06/27/7d5fbe51917f9b2ede0dd9bc30b91b77.png Скачать фильм Остановивший время через торрент бесплантно в хорошем качестве Описание: По сюжету фильма жена и сын главного героя погибают в автокатастрофе. Несчастный вдовец долго не может пережить их потерю, так ... 10 10 2
Info! Золотая раздача, скачанное не засчитывается.
Торрент: Зарегистрирован [2011-06-27 07:57] · скачан: 124 раз
Статус: √ проверено
Размер: 4.33 GB
Как cкачать? Как скачать Остановивший время через торрент | UTorrent

28-11-2019 20:33  

Отключить всю рекламу на сайте


11-08-2011 13:12 Остановивший время Скачать торрент  

Спасибо,посмотрим!!!pb.wtf



    Дорогой пользователь! Огромная просьба, поблагодарите релизера, оцените раздачу и оставьте свои комментарий, если Вы скачали Остановивший время через торрент бесплатно! Внесите свою лепту в развитие PiratBit!
    Комментировать посты могут только пользователи прошедшие не сложную регистрацию
    Показать сообщения:    

    Остановивший время через торрент
    Скачать бесплатно Остановивший время
    Остановивший время скачать торрент
    Остановивший время смотреть онлайн
    Cкачать фильм Остановивший время бесплатно
    Остановивший время скачать торрент в хорошем качестве
    Остановивший время смотреть онлайн бесплатно в хорошем качестве


    Вы не можете начинать темы
    Вы не можете отвечать на сообщения
    Вы не можете редактировать свои сообщения
    Вы не можете удалять свои сообщения
    Вы не можете голосовать в опросах
    Вы не можете прикреплять файлы к сообщениям
    Вы можете скачивать файлы