Всегда рабочее зеркало без VPN и Proxy просто перед .vidak.icu напиши любое слово или цифру, Пример http://8vpx.vidak.icu

Лицензия

MVO

1 сезон

1

1 сезон

iTunes

1 сезон

13

1 сезон

Deluxe

pack

Рекомендуем

Repack

30

ВАЖНО

RePack

MK11

RePack

jed

RePack

fifa19

RePack

RDR2

RePack

NEED FOR SPEED™ PAYBACK

Кинопоиск HD

6 сезон

 Острые козырьки 6 сезон

Все сериалы

все сериалы на PB.wtf

RePack

FAR CRY 5
  
Magnet ссылка

Больше чем секс / No Strings Attached (Айвен Райтман) [2011, мелодрама, комедия, BDRip (720p)] pb.wtf

Больше чем секс через торрент pb.wtf

Размер: 2.61 GB | Добавлен: 11 лет назад | Торрент скачан:827 раз
Смотреть онлайн Больше чем секс | Скачать    Ребята, помогите собрать деньги на оплату серверов!!!

28-06-2011 13:27 Больше чем секс Скачать торрент  



Название: Больше чем секс
Оригинальное название: No Strings Attached

Год выхода: 2011
Жанр: Мелодрама, комедия
Режиссер: Айвен Райтман
В ролях: Натали Портман, Эштон Катчер, Кевин Клайн, Кэри Элвис, Грета Гервиг, Лэйк Белл, Оливия Тирлби, Лудакрис, Джэйк М. Джонсон, Мелинда Калинг

«Сможет ли бабник влюбиться в красотку?»

Описание:
Романтическая комедия о том, как легко мужчины и женщины вступают в сексуальную связь, но как трудно им достичь эмоциональной близости. Главных героев связывают только сексуальные отношения, но со временем они понимают, что на смену физиологическим инстинктам приходит нечто большее.

Продолжительность: 01:47:58

Перевод: Профессиональный (Полное дублирование) Лицензия
Выпущено: США |



Качество: BDRip (720p)
Видео: 1280x534, 3 008 Кбит/сек, 23,976 кадр/сек, AVC, x264, 2,35:1, 0.179 Бит/(Пиксели*Кадры)
Аудио: AC-3, 448 Кбит/сек, 6 канала(ов), 48,0 КГц
Размер: 2.61 GB




Рейтинг MPAA:



Бюджет Фильма:$25 000 000
Кассовые сборы:$147 796 399
Айвен Райтман — известный голливудский режиссёр, приложивший руку к созданию таких знаменитых картин, как «Охотники за привидениями», «Близнецы», «Детсадовский полицейский», «Дэйв», «Джуниор», «Шесть дней, семь ночей», «Эволюция» и других.


В основу сценария лег одноимённый рассказ Элизабет Меривезер и Майкла Самонека[1].


Натали Портман выступила еще и исполнительным продюсером[1].


Бюджет — $ 25 миллионов. В первые уик-энды касса собрала более $ 43 миллионов.


Производством картины занималось несколько киностудий, среди которых «Cold Spring Pictures» и «Paramount Pictures». Прокатчиком в России выступил «Централ Партнершип».


Съёмки проходили в Лос-Анджелесе, Калифорния, США.


Кевин Клайн написал и исполнил песню «It’s Your Birthday». В саундтрек вошли также песни «Untitled» D’Angelo, «Take Your Time» Эла Грина, «Bleeding Love» Леоны Льюис, «Bossa Nova Baby» Элвиса Пресли, «Ms. Jackson» Outcast, «Shake Ya Tailfeather» Nelly&P.Diddy.


В первоначальном сценарии фильм назывался «Fuck Buddies», затем был заменен на «Friends with Benefits» («Секс по дружбе»). Такой вариант также подвергся пересмотру, поскольку фильм с таким названием («Секс по дружбе») с Джастином Тимберлейком и Милой Кунис уже существовал и планировался к выходу в том же, 2011 году, как и «Больше чем секс».[2]


Ввиду наличия сексуальных сцен детям до 17 лет просмотр обязателен в присутствии родителей.
General
Complete name : D:DCBolshe.chem.sex.2011.D.BDRip.720p.[nolimits-team].mkv
Format : Matroska
File size : 2.61 GiB
Duration : 1h 47mn
Overall bit rate : 3 457 Kbps
Movie name : Rip by victordan 95
Encoded date : UTC 2011-06-20 20:07:26
Writing application : mkvmerge v3.2.0 ('Beginnings') built on Feb 12 2010 16:46:17
Writing library : libebml v0.7.9 + libmatroska v0.8.1

Video
ID : 1
Format : AVC
Format/Info : Advanced Video Codec
Format profile : [email protected]
Format settings, CABAC : Yes
Format settings, ReFrames : 6 frames
Muxing mode : Container [email protected]
Codec ID : V_MPEG4/ISO/AVC
Duration : 1h 47mn
Bit rate : 2 940 Kbps
Nominal bit rate : 3 008 Kbps
Width : 1 280 pixels
Height : 534 pixels
Display aspect ratio : 2.35:1
Original display aspect ratio : 2.35:1
Frame rate : 23.976 fps
Resolution : 8 bits
Colorimetry : 4:2:0
Scan type : Progressive
Bits/(Pixel*Frame) : 0.179
Stream size : 2.21 GiB (85%)
Writing library : x264 core 115 r1995 c1e60b9
Encoding settings : cabac=1 / ref=6 / deblock=1:0:0 / analyse=0x3:0x113 / me=umh / subme=8 / psy=1 / psy_rd=1.00:0.00 / mixed_ref=1 / me_range=16 / chroma_me=1 / trellis=1 / 8x8dct=1 / cqm=0 / deadzone=21,11 / fast_pskip=1 / chroma_qp_offset=-2 / threads=3 / sliced_threads=0 / slices=4 / nr=0 / decimate=1 / interlaced=0 / bluray_compat=1 / constrained_intra=0 / bframes=3 / b_pyramid=0 / b_adapt=1 / b_bias=0 / direct=3 / weightb=1 / open_gop=0 / weightp=1 / keyint=24 / keyint_min=1 / scenecut=40 / intra_refresh=0 / rc_lookahead=24 / rc=2pass / mbtree=1 / bitrate=3008 / ratetol=1.0 / qcomp=0.60 / qpmin=0 / qpmax=69 / qpstep=4 / cplxblur=20.0 / qblur=0.5 / vbv_maxrate=15000 / vbv_bufsize=15000 / nal_hrd=vbr / ip_ratio=1.10 / aq=1:1.00
Language : English

Audio
ID : 2
Format : AC-3
Format/Info : Audio Coding 3
Codec ID : A_AC3
Duration : 1h 47mn
Bit rate mode : Constant
Bit rate : 448 Kbps
Channel(s) : 6 channels
Channel positions : Front: L C R, Surround: L R, LFE
Sampling rate : 48.0 KHz
Stream size : 346 MiB (13%)
Title : Russian DD 5.1 448 kb/s
Language : Russian
скриншот  скриншот  скриншот  скриншот  
pb.wtf



Скачать Больше чем секс через торрент http://i23.fastpic.ru/big/2011/0620/a2/56fea918b3d2f9fcbbaaafccc19686a2.png Скачать, смотреть онлайн Больше чем секс бесплантно в хорошем качестве Описание: Романтическая комедия о том, как легко мужчины и женщины вступают в сексуальную связь, но как трудно им достичь эмоциональной ... 9.3 10 4
Info! Золотая раздача, скачанное не засчитывается.
Торрент: Зарегистрирован [2011-06-28 13:27] · скачан: 827 раз
Статус: √ проверено
Размер: 2.61 GB
Как cкачать? Как скачать Больше чем секс через торрент | UTorrent

% Раздел Тема Автор DL S | L
Фильмы (DVD фильмы) [ 6.82 GB ] Больше чем секс / No Strings Attached [2011 DVD9] R5 «Юниверсал Пикчерс Рус» voovaz Скачать
1 | 0
Фильмы 2011 [ 2.05 GB ] Больше чем секс / No Strings Attached [2011 HDRip лицензия2.05 GB] coc900 Скачать
1 | 0
Фильмы [HD 720p, 1080p] (Хороший звук DUB, MVO) [ 10.56 GB ] Больше чем секс / No Strings Attached [2011 BDRip ] Shmel Скачать
1 | 0
Фильмы 2011 [ 701 MB ] Больше чем секс / No Strings Attached [2011 HDRip лицензия 700MB] Lil Badun Скачать
1 | 0
Фильмы 2011 [ 1.45 GB ] Больше чем секс / No Strings Attached [2011 HDRip лицензия] SD Скачать
1 | 0

28-11-2019 20:33  

Отключить вcю реклaмy на сайте

    Дорогой пользователь! Огромная просьба, поблагодарите релизера, оцените раздачу и оставьте свои комментарий, если Вы скачали Больше чем секс через торрент бесплатно!
    Комментировать посты могут только пользователи прошедшие не сложную регистрацию
    Показать сообщения:    

    Больше чем секс через торрент
    Скачать бесплатно Больше чем секс
    Больше чем секс скачать торрент
    Больше чем секс смотреть онлайн
    Cкачать фильм Больше чем секс бесплатно
    Больше чем секс скачать торрент в хорошем качестве
    Больше чем секс смотреть онлайн бесплатно в хорошем качестве


    Вы не можете начинать темы
    Вы не можете отвечать на сообщения
    Вы не можете редактировать свои сообщения
    Вы не можете удалять свои сообщения
    Вы не можете голосовать в опросах
    Вы не можете прикреплять файлы к сообщениям
    Вы можете скачивать файлы