1 сезон

3 сезон

iTunes

1

iTunes

MVO

iTunes

13

1 сезон

RePack

30

Deluxe

pack

Лицензия

ВАЖНО

ИГРА 18+

pack

RePack

MK11

RePack

jed

RePack

fifa19

RePack

RDR2

RePack

NEED FOR SPEED™ PAYBACK

4 сезон

9 сезон

Бесстыжие 9 сезон

Все сериалы

все сериалы на PB.wtf

RePack

FAR CRY 5

Anonymous, доброй ночи, мы катастрофически не успеваем собрать деньги на оплату серверов, помогите нам пожалуйста 5,10,15р., для нас важна любая помощь . В качестве благодарности мы отключим Вам всю рекламу на сайте (укажите свой ник в строку Ваше имя)!

×
  
Magnet ссылка

Лопе де Вега: Распутник и соблазнитель / Lope (Андруча Уэддингтон / Andrucha Waddington) [2010, Бразилия, Испания, драма, биография, DVD5] R5 «Кармен Видео» pb.wtf

Лопе де Вега: Распутник и соблазнитель через торрент pb.wtf

Размер: 4.23 GB | Добавлен: 10 лет назад | Торрент скачан:26 раз
Скачать  

02-07-2011 10:32 Лопе де Вега: Распутник и соблазнитель Скачать торрент  


Лопе де Вега: Распутник и соблазнитель / Lope
Страна: Бразилия, Испания
Студия: Antena 3 Films, Conspiração Filmes, Ikiru Films S.L., Toro Pictures, El
Жанр: драма, биография
Год выпуска: 2010
Мировая премьера: 3 сентября 2010
Российская премьера: 2 июня 2011, «Каравелла DDC»
Дата выхода DVD: 29 июня 2011, «Кармен Видео»
Дата выхода Blu-Ray: 29 июня 2011, «Кармен Видео»
Продолжительность: 01:42:32
Перевод: Профессиональный (многоголосый закадровый) [Лицензия]
Cубтитры: нет
Оригинальная аудиодорожка: английский
Режиссер: Андруча Уэддингтон / Andrucha Waddington
В ролях: Леонор Уотлинг, Соня Брага, Луис Тосар, Пилар Лопес де Айяла, Антонио де ла Торре, Альберто Эмманн, Марина Салас, Мигель Анхель Муньос, Селтон Меллу, Хуан Диего
Описание: XVI век, Испания. Одаренный молодой драматург Лопе де Вега возвращается в Мадрид с войны, полный амбиций, стремления жить и писать… Но за душой у него ни гроша, поэтому он вынужден работать переписчиком при более известных авторах. Лопе влюбляется в Елену, восхитительную дочь своего босса. Ее отец, руководящий самой успешной театральной труппой в городе, никогда не одобрил бы такой связи, поэтому Лопе и Елена вынуждены видеться тайком. Но у Елены есть и другая тайна: она уже замужем за другим. Лопе просит возлюбленную рассказать всем об их любви и расторгнуть брак, но получает отказ. Уязвленный, он придает огласке лицемерие Елены и ее отца, а в ответ получает обвинение в клевете. Последний способ уйти от расправы — пуститься в бега...
Бонусы: нет

Качество: DVD5 R5
Формат: DVD-Video
Видео кодек: MPEG2
Аудио кодек: AC3
Видео: PAL 16:9 (720x576(0.440)) MPEG Video,25,000 кадр/сек, 4559 Кбит/сек
Аудио #1: Russian (Dolby AC3, 6 ch) 384 Кбит/сек, 48,0 КГц [многоголосный]
Аудио #2: Russian (Dolby AC3, 2 ch) 192 Кбит/сек, 48,0 КГц [многоголосный]
Аудио #3: English (Dolby AC3, 6 ch) 384 Кбит/сек, 48,0 КГц



Title: F
Size: 4.23 Gb ( 4 439 134 KBytes ) - DVD-5
Enabled regions: 1, 2, 3, 4, 5, 6

VTS_01 :
Play Length: 00:00:04
Video: PAL 16:9 (720x576) VBR, Auto Letterboxed

VTS_02 :
Play Length: 00:00:13
Video: PAL 16:9 (720x576) VBR, Auto Letterboxed
Audio:
English (Dolby AC3, 6 ch)

VTS_03 :
Play Length: 00:00:09
Video: PAL 4:3 (720x576) VBR
Audio:
Russian (LinearPCM, 2 ch)

VTS_04 :
Play Length: 01:42:32
Video: PAL 16:9 (720x576) VBR, Auto Letterboxed
Audio:
Russian (Dolby AC3, 6 ch)
Russian (Dolby AC3, 2 ch)
English (Dolby AC3, 6 ch)
Subtitles:
Russian
Russian
Общее
Полное имя : E:\Новинки 2011\Lope.de.vega.2010.DVD5\VIDEO_TS\VTS_04_1.VOB
Формат : MPEG-PS
Размер файла : 1024 Мбайт
Продолжительность : 25 м.
Общий поток : 5631 Кбит/сек

Видео
Идентификатор : 224 (0xE0)
Формат : MPEG Video
Версия формата : Version 2
Профиль формата : Main@Main
Параметр BVOP формата : Да
Параметр матрицы формата : Выборочная
Параметры GOP формата : M=3, N=12
Продолжительность : 25 м.
Вид битрейта : Переменный
Битрейт : 4559 Кбит/сек
Номинальный битрейт : 8000 Кбит/сек
Ширина : 720 пикс.
Высота : 576 пикс.
Соотношение сторон : 16:9
Частота кадров : 25,000 кадр/сек
Стандарт вещания : PAL
Цветовое пространство : YUV
Подвыборка цветности : 4:2:0
Битовая глубина : 8 бит
Тип развёртки : Чересстрочная
Порядок развёртки : Верхнее поле первое
Метод сжатия : С потерями
Бит/(Пиксели*Кадры) : 0.440
Размер потока : 829 Мбайт (81%)

Аудио #1
Идентификатор : 189 (0xBD)-128 (0x80)
Формат : AC-3
Формат/Информация : Audio Coding 3
Расширение режима : CM (complete main)
Режим смешивания : DVD-Video
Продолжительность : 25 м.
Вид битрейта : Постоянный
Битрейт : 384 Кбит/сек
Каналы : 6 каналов
Расположение каналов : Front: L C R, Side: L R, LFE
Частота : 48,0 КГц
Битовая глубина : 16 бит
Метод сжатия : С потерями
Задержка видео : -80 мс.
Размер потока : 69,8 Мбайт (7%)

Аудио #2
Идентификатор : 189 (0xBD)-129 (0x81)
Формат : AC-3
Формат/Информация : Audio Coding 3
Расширение режима : CM (complete main)
Режим смешивания : DVD-Video
Продолжительность : 25 м.
Вид битрейта : Постоянный
Битрейт : 192 Кбит/сек
Каналы : 2 канала
Расположение каналов : Front: L R
Частота : 48,0 КГц
Битовая глубина : 16 бит
Метод сжатия : С потерями
Задержка видео : -80 мс.
Размер потока : 34,9 Мбайт (3%)

Аудио #3
Идентификатор : 189 (0xBD)-130 (0x82)
Формат : AC-3
Формат/Информация : Audio Coding 3
Расширение режима : CM (complete main)
Режим смешивания : DVD-Video
Продолжительность : 25 м.
Вид битрейта : Постоянный
Битрейт : 384 Кбит/сек
Каналы : 6 каналов
Расположение каналов : Front: L C R, Side: L R, LFE
Частота : 48,0 КГц
Битовая глубина : 16 бит
Метод сжатия : С потерями
Задержка видео : -80 мс.
Размер потока : 69,8 Мбайт (7%)

Текст #1
Идентификатор : 189 (0xBD)-32 (0x20)
Формат : RLE
Формат/Информация : Run-length encoding
Режим смешивания : DVD-Video
Продолжительность : 25 м.
Задержка видео : 2 с. 600 мс.

Текст #2
Идентификатор : 189 (0xBD)-33 (0x21)
Формат : RLE
Формат/Информация : Run-length encoding
Режим смешивания : DVD-Video
Продолжительность : 25 м.
Задержка видео : 2 с. 600 мс.










pb.wtf



Скачать Лопе де Вега: Распутник и соблазнитель через торрент http://i4.imageban.ru/out/2011/07/02/b932186ddb17e24f45835f73f8549ee6.jpg Скачать фильм Лопе де Вега: Распутник и соблазнитель через торрент бесплантно в хорошем качестве Описание: XVI век, Испания. Одаренный молодой драматург Лопе де Вега возвращается в Мадрид с войны, полный амбиций, стремления жить и ... 5 10 3
Info! Золотая раздача, скачанное не засчитывается.
Торрент: Зарегистрирован [2011-07-02 10:32] · скачан: 26 раз
Статус: √ проверено
Размер: 4.23 GB
Как cкачать? Как скачать Лопе де Вега: Распутник и соблазнитель через торрент | UTorrent

28-11-2019 20:33  

Отключить всю рекламу на сайте

02-07-2011 13:19 Лопе де Вега: Распутник и соблазнитель Скачать торрент  

огромное спасибо. давно ждал в хорошем качестве. советую посмотреть- фильм классныйpb.wtf



    Дорогой пользователь! Огромная просьба, поблагодарите релизера, оцените раздачу и оставьте свои комментарий, если Вы скачали Лопе де Вега: Распутник и соблазнитель через торрент бесплатно! Внесите свою лепту в развитие PiratBit!
    Комментировать посты могут только пользователи прошедшие не сложную регистрацию
    Показать сообщения:    

    Лопе де Вега: Распутник и соблазнитель через торрент
    Скачать бесплатно Лопе де Вега: Распутник и соблазнитель
    Лопе де Вега: Распутник и соблазнитель скачать торрент
    Лопе де Вега: Распутник и соблазнитель смотреть онлайн
    Cкачать фильм Лопе де Вега: Распутник и соблазнитель бесплатно
    Лопе де Вега: Распутник и соблазнитель скачать торрент в хорошем качестве
    Лопе де Вега: Распутник и соблазнитель смотреть онлайн бесплатно в хорошем качестве


    Вы не можете начинать темы
    Вы не можете отвечать на сообщения
    Вы не можете редактировать свои сообщения
    Вы не можете удалять свои сообщения
    Вы не можете голосовать в опросах
    Вы не можете прикреплять файлы к сообщениям
    Вы можете скачивать файлы