Ссылка на приватное зеркало нашего сайта всего за 1$. Внимание количество ограничено!!!

2 сезон

iTunes

1 сезон

1

iTunes

iTunes

iTunes

1 сезон

RePack

30

ИГРА 18+

pack

ВАЖНО

!!Акция!!

Alien_RageХит недели

RePack

MK11
pack

Забери бонус

RePack

jed

!!Акция!!

Alien_Rage

RePack

fifa19

RePack

Assassins Creed: Odyssey

RePack

NEED FOR SPEED™ PAYBACK

4 сезон

9 сезон

Бесстыжие 9 сезон

Все сериалы

все сериалы на PB.wtf

RePack

FAR CRY 5
  

Двенадцать / Twelve (Джоэл Шумахер) [2010 г., триллер, драма, BDRip 720р] pb.wtf

Двенадцать через торрент pb.wtf

Размер: 5.79 GB | Добавлен: 9 лет 3 мес. назад | Торрент скачан:61 раз
Скачать  

03-07-2011 13:26 Двенадцать Скачать торрент  

Двенадцать
Twelve




Год выпуска: 2010
Страна: США, Франция
Жанр: триллер, драма
Продолжительность: 01:30:42
Перевод: Профессиональный (многоголосый, закадровый) R5

Режиссер: Джоэл Шумахер

В ролях: Кифер Сазерленд, Чейс Кроуфорд, Рори Калкин, Филип Эттинджер, Эсти Гинзбург, Кертис «50 Cent» Джексон, Зои Кравиц, Эмили Миде, Эмма Робертс, Эллен Баркин.

Описание: Главного героя, состоятельного старшеклассника Майка, исключают из школы. Парень находит себя в мире торговли наркотиками. Дела идут успешно, деньги текут рекой, но в один день всё меняется: брат героя оказывается жестоко убит, а лучший друг арестован.

Семпл

Качество: BDRip 720р
Формат: MKV
Видео кодек: AVC
Аудио кодек: AC3
Видео: AVC, 6 808 Kbps, 1280 x 692 pixels, 23.976 fps, Bits/(Pixel*Frame) : 0.321
Audio #1 AC-3, 448 Kbps, 6 channels, 48.0 KHz : ru
Audio #2 DTS, 1 510 Kbps, 6 channels, 48.0 KHz : en
Text #1 : UTF-8: ru
Text #2 : UTF-8: en
Complete name Twelve.2010.BDRip.720p.mkv
Format : Matroska
File size : 5.79 GiB
Duration : 1h 34mn
Overall bit rate : 8 762 Kbps
Movie name : Двенадцать
Encoded date : UTC 2011-07-01 20:05:31
Writing application : mkvmerge v2.9.7 ('Tenderness') built on Jul 1 2009 18:43:35
Writing library : libebml v0.7.7 + libmatroska v0.8.1

Video
ID : 1
Format : AVC
Format/Info : Advanced Video Codec
Format profile : High@L4.1
Format settings, CABAC : Yes
Format settings, ReFrames : 8 frames
Codec ID : V_MPEG4/ISO/AVC
Duration : 1h 34mn
Bit rate : 6 808 Kbps
Width : 1 280 pixels
Height : 692 pixels
Display aspect ratio : 1.850
Frame rate : 23.976 fps
Color space : YUV
Chroma subsampling : 4:2:0
Bit depth : 8 bits
Scan type : Progressive
Bits/(Pixel*Frame) : 0.321
Stream size : 4.38 GiB (76%)
Title : Двенадцать
Writing library : x264 core 98 r1649 c54c47d
Encoding settings : cabac=1 / ref=8 / deblock=1:-3:-3 / analyse=0x3:0x113 / me=umh / subme=9 / psy=1 / psy_rd=1.10:0.00 / mixed_ref=1 / me_range=32 / chroma_me=1 / trellis=2 / 8x8dct=1 / cqm=0 / deadzone=21,11 / fast_pskip=0 / chroma_qp_offset=-4 / threads=6 / sliced_threads=0 / nr=0 / decimate=0 / interlaced=0 / constrained_intra=0 / bframes=6 / b_pyramid=2 / b_adapt=2 / b_bias=0 / direct=3 / weightb=1 / weightp=2 / keyint=250 / keyint_min=25 / scenecut=40 / intra_refresh=0 / rc_lookahead=48 / rc=2pass / mbtree=1 / bitrate=6808 / ratetol=1.0 / qcomp=0.60 / qpmin=10 / qpmax=51 / qpstep=4 / cplxblur=20.0 / qblur=0.5 / ip_ratio=1.40 / aq=1:0.80
Language : English

Audio #1
ID : 2
Format : AC-3
Format/Info : Audio Coding 3
Mode extension : CM (complete main)
Codec ID : A_AC3
Duration : 1h 34mn
Bit rate mode : Constant
Bit rate : 448 Kbps
Channel(s) : 6 channels
Channel positions : Front: L C R, Side: L R, LFE
Sampling rate : 48.0 KHz
Bit depth : 16 bits
Compression mode : Lossy
Stream size : 303 MiB (5%)
Title : AC3 - MVO (R5)
Language : Russian

Audio #2
ID : 3
Format : DTS
Format/Info : Digital Theater Systems
Codec ID : A_DTS
Duration : 1h 34mn
Bit rate mode : Constant
Bit rate : 1 510 Kbps
Channel(s) : 6 channels
Channel positions : Front: L C R, Side: L R, LFE
Sampling rate : 48.0 KHz
Bit depth : 24 bits
Compression mode : Lossy
Delay relative to video : 22ms
Stream size : 1 021 MiB (17%)
Title : DTS
Language : English

Text #1
ID : 4
Format : UTF-8
Codec ID : S_TEXT/UTF8
Codec ID/Info : UTF-8 Plain Text
Language : Russian

Text #2
ID : 5
Format : UTF-8
Codec ID : S_TEXT/UTF8
Codec ID/Info : UTF-8 Plain Text
Language : English
pb.wtf



Скачать Двенадцать через торрент http://i3.imageban.ru/out/2011/07/03/d0344ead89e7f0273ffe90bb213ba4f3.png Скачать фильм Двенадцать через торрент бесплантно в хорошем качестве Описание: Главного героя, состоятельного старшеклассника Майка, исключают из школы. Парень находит себя в мире торговли наркотиками. Дела ... 5 10 3
Info! Золотая раздача, скачанное не засчитывается.
Торрент: Зарегистрирован [2011-07-03 13:26] · скачан: 61 раз
Статус: √ проверено
Размер: 5.79 GB
Как cкачать? Как скачать Двенадцать через торрент | qTorrent

% Раздел Тема Автор DL S | L
Фильмы до 2000 г. [ 3.67 GB ] Двенадцать обезьян / Twelve Monkeys [1995 BDRip-AVC Remastered] DUB - ExKinoRay Enigma2010 Скачать
1 | 0
T Релизы по Парсеру [Игры, Сериалы и Фильмы и другое...] [ 1.46 GB ] 12 друзей Оушена / Двенадцать друзей Оушена / Ocean's Twelve [2004 BDRip] Dub sanekbest1 Скачать
1 | 0
Фильмы [HD 720p, 1080p] (Хороший звук DUB, MVO) [ 26.71 GB ] 12 обезьян / Двенадцать обезьян / Twelve Monkeys / 12 Monkeys [1995 BDRip 1080p] Dub + MVO + DVO + 4x AVO + Ukr + Original Eng Ворон Скачать
1 | 0
Фильмы 2010 [ 1.37 GB ] Двенадцать / Twelve [2010 HDRip лицензия] Lil Badun Скачать
1 | 0
Фильмы (DVD фильмы) [ 5.19 GB ] Двенадцать / Twelve [2010 DVD9 лицензия] Zormeg Скачать
1 | 0
Фильмы до 2000 г. [ 785 MB ] Двенадцать обезьян / Twelve Monkeys [1995 BDRip] DUB -=Cherry=- Скачать
1 | 0
Фильмы [HD 720p, 1080p] (Хороший звук DUB, MVO) [ 4.66 GB ] Двенадцать / Twelve [2010 BDRip 720p] MVO original eng tserkovnye Скачать
1 | 0

28-11-2019 20:33  

Отключить всю рекламу на сайте

    Дорогой пользователь! Огромная просьба, поблагодарите релизера, оцените раздачу и оставьте свои комментарий, если Вы скачали Двенадцать через торрент бесплатно! Внесите свою лепту в развитие PiratBit!
    Комментировать посты могут только пользователи прошедшие не сложную регистрацию
    Показать сообщения:    

    Двенадцать через торрент
    Скачать бесплатно Двенадцать
    Двенадцать скачать торрент
    Двенадцать смотреть онлайн
    Cкачать фильм Двенадцать бесплатно
    Двенадцать скачать торрент в хорошем качестве
    Двенадцать смотреть онлайн бесплатно в хорошем качестве


    Вы не можете начинать темы
    Вы не можете отвечать на сообщения
    Вы не можете редактировать свои сообщения
    Вы не можете удалять свои сообщения
    Вы не можете голосовать в опросах
    Вы не можете прикреплять файлы к сообщениям
    Вы можете скачивать файлы