Ссылка на приватное зеркало нашего сайта всего за 1$. Внимание количество ограничено!!!

2 сезон

iTunes

1 сезон

1

iTunes

iTunes

iTunes

1 сезон

RePack

30

ИГРА 18+

pack

ВАЖНО

!!Акция!!

Alien_RageХит недели

RePack

MK11
pack

Забери бонус

RePack

jed

!!Акция!!

Alien_Rage

RePack

fifa19

RePack

Assassins Creed: Odyssey

RePack

NEED FOR SPEED™ PAYBACK

4 сезон

9 сезон

Бесстыжие 9 сезон

Все сериалы

все сериалы на PB.wtf

RePack

FAR CRY 5
  

Чудаки 3.5 / Jackass 3.5 (Джефф Треймейн) [2011 г., документальный, комедия, BDRip 1080р] pb.wtf

Чудаки 3.5 через торрент pb.wtf

Раздают: 1 [ 0 KB/s ]
Размер: 6.82 GB | Добавлен: 9 лет 3 мес. назад | Торрент скачан:87 раз
Скачать  

04-07-2011 18:45 Чудаки 3.5 Скачать торрент  

Чудаки 3.5
Jackass 3.5


Unrated version



Год выпуска: 2011
Страна: США
Жанр: документальный, комедия
Продолжительность: 01:24:50
Перевод: Любительский (одноголосый закадровый)

Режиссер: Джефф Треймейн

В ролях: Джейсон Акуна, Райан Данн, Дэйв Инглэнд, Джонни Ноксвил, Престон Лэси, Бэм Марджера, Эрен МакГехи, Крис Понтиус, Стив-О

Описание: Документальный фильм «Чудаки 3,5» — продолжение серии, начавшейся картиной «Чудаки», и рассказывающей об исполнении различных шутливых, порой очень опасных, самоистязающих, а порой просто глупых трюков, выполняемых командой энтузиастов. На этот раз — все вновь, как и прежде и гораздо больше. Еще более возмутительные трюки, еще больше шуток и погромов, включая достоверное столкновение одного из создателей картины Стива-О с каймановой черепахой и другого участника проекта Криса Понтиуса с его невероятным лесным дятлом. Кроме того, каждый зритель сможет попасть за кулисы шоу «Чудаки 3,5» и увидеть сумасшедшую жизнь создателей фильма.

Семпл

Качество: BDRip 1080р
Формат: MKV
Видео кодек: AVC
Аудио кодек: AC3
Видео: AVC, 9 555 Kbps, 1920 x 1080 pixels, 23.976 fps, Bits/(Pixel*Frame) : 0.192
Audio #1 AC-3, 448 Kbps, 6 channels, 48.0 KHz: ru
Audio #2 DTS, 1 510 Kbps, 6 channels, 48.0 KHz: en
Complete name Jackass.3.5.2011.UNRATED.L1.Rus.Eng.BDRip-AVC.1080p.x264.mkv
Format : Matroska
File size : 6.82 GiB
Duration : 1h 24mn
Overall bit rate : 11.5 Mbps
Encoded date : UTC 2011-06-27 13:57:33
Writing application : mkvmerge v4.8.0 ('I Got The...') сборка от May 24 2011 03:12:58
Writing library : libebml v1.2.0 + libmatroska v1.1.0

Video
ID : 1
Format : AVC
Format/Info : Advanced Video Codec
Format profile : High@L4.1
Format settings, CABAC : Yes
Format settings, ReFrames : 4 frames
Format settings, GOP : M=4, N=55
Muxing mode : Header stripping
Codec ID : V_MPEG4/ISO/AVC
Duration : 1h 24mn
Bit rate : 9 555 Kbps
Width : 1 920 pixels
Height : 1 080 pixels
Display aspect ratio : 16:9
Frame rate : 23.976 fps
Color space : YUV
Chroma subsampling : 4:2:0
Bit depth : 8 bits
Scan type : Progressive
Bits/(Pixel*Frame) : 0.192
Stream size : 5.52 GiB (81%)
Writing library : x264 core 115 r2008 4c552d8
Encoding settings : cabac=1 / ref=4 / deblock=1:0:0 / analyse=0x3:0x133 / me=umh / subme=7 / psy=1 / psy_rd=1.00:0.00 / mixed_ref=1 / me_range=16 / chroma_me=1 / trellis=1 / 8x8dct=1 / cqm=0 / deadzone=21,11 / fast_pskip=0 / chroma_qp_offset=-2 / threads=12 / sliced_threads=0 / nr=0 / decimate=1 / interlaced=0 / bluray_compat=0 / constrained_intra=0 / bframes=3 / b_pyramid=2 / b_adapt=1 / b_bias=0 / direct=1 / weightb=1 / open_gop=0 / weightp=2 / keyint=250 / keyint_min=23 / scenecut=40 / intra_refresh=0 / rc_lookahead=40 / rc=2pass / mbtree=1 / bitrate=9555 / ratetol=1.0 / qcomp=0.60 / qpmin=0 / qpmax=69 / qpstep=4 / cplxblur=20.0 / qblur=0.5 / ip_ratio=1.40 / aq=1:1.00
Language : English

Audio #1
ID : 2
Format : AC-3
Format/Info : Audio Coding 3
Mode extension : CM (complete main)
Muxing mode : Header stripping
Codec ID : A_AC3
Duration : 1h 24mn
Bit rate mode : Constant
Bit rate : 448 Kbps
Channel(s) : 6 channels
Channel positions : Front: L C R, Side: L R, LFE
Sampling rate : 48.0 KHz
Bit depth : 16 bits
Compression mode : Lossy
Stream size : 272 MiB (4%)
Language : Russian

Audio #2
ID : 3
Format : DTS
Format/Info : Digital Theater Systems
Muxing mode : Header stripping
Codec ID : A_DTS
Duration : 1h 24mn
Bit rate mode : Constant
Bit rate : 1 510 Kbps
Channel(s) : 6 channels
Channel positions : Front: L C R, Side: L R, LFE
Sampling rate : 48.0 KHz
Bit depth : 24 bits
Compression mode : Lossy
Delay relative to video : 11ms
Stream size : 916 MiB (13%)
Language : English
pb.wtf



Скачать Чудаки 3.5 через торрент http://i4.imageban.ru/out/2011/07/04/329b6d8744319f3b4ef9f86254d15aa5.png Скачать фильм Чудаки 3.5 через торрент бесплантно в хорошем качестве Описание: Документальный фильм «Чудаки 3,5» — продолжение серии, начавшейся картиной «Чудаки», и рассказывающей об исполнении различных ... 10 10 1
Info! Золотая раздача, скачанное не засчитывается.
Торрент: Зарегистрирован [2011-07-04 18:45] · скачан: 87 раз
Статус: √ проверено
Размер: 6.82 GB
Как cкачать? Как скачать Чудаки 3.5 через торрент | qTorrent

% Раздел Тема Автор DL S | L
Документальные фильмы и телепередачи [ 2.18 GB ] Чудаки 3.5 / Jackass 3.5 [2011 документальный HDRip-AVC] от R.G. B-kpo V@DILA Скачать
1 | 0
Фильмы 2011 [ 1.36 GB ] Чудаки 3.5 / Jackass 3.5 [2011 документальный HDRip] СОЧИНСКИЙ Скачать
1 | 0
Фильмы 2011 [ 1.36 GB ] Чудаки 3.5 / Jackass 3.5 [2011 документальный DVDRip] Lil Badun Скачать
2 | 0

28-11-2019 20:33  

Отключить всю рекламу на сайте

    Дорогой пользователь! Огромная просьба, поблагодарите релизера, оцените раздачу и оставьте свои комментарий, если Вы скачали Чудаки 3.5 через торрент бесплатно! Внесите свою лепту в развитие PiratBit!
    Комментировать посты могут только пользователи прошедшие не сложную регистрацию
    Показать сообщения:    

    Чудаки 3.5 через торрент
    Скачать бесплатно Чудаки 3.5
    Чудаки 3.5 скачать торрент
    Чудаки 3.5 смотреть онлайн
    Cкачать фильм Чудаки 3.5 бесплатно
    Чудаки 3.5 скачать торрент в хорошем качестве
    Чудаки 3.5 смотреть онлайн бесплатно в хорошем качестве


    Вы не можете начинать темы
    Вы не можете отвечать на сообщения
    Вы не можете редактировать свои сообщения
    Вы не можете удалять свои сообщения
    Вы не можете голосовать в опросах
    Вы не можете прикреплять файлы к сообщениям
    Вы можете скачивать файлы