1 сезон

1 сезон

iTunes

1

КиноПоиск HD

Кинопоиск HD

iTunes

13

1 сезон

RePack

30

Ultimate

ВАЖНО

ИГРА 18+

pack

RePack

MK11
pack

Легкие деньги

RePack

jed

RePack

fifa19

RePack

RDR2

RePack

NEED FOR SPEED™ PAYBACK

4 сезон

9 сезон

Бесстыжие 9 сезон

Все сериалы

все сериалы на PB.wtf

RePack

FAR CRY 5
  
Magnet ссылка

Человек-личинка / Larva (Тим Кокс) [2005 г., ужасы, фантастика,, DVDRip, лицензия] pb.wtf

Человек-личинка через торрент pb.wtf

Размер: 742 MB | Добавлен: 9 лет 9 мес. назад | Торрент скачан:29 раз
Скачать  

07-07-2011 09:07 Человек-личинка Скачать торрент  

Человек-личинка / Larva

Год выпуска: 2005
Страна: США, Германия
Жанр: ужасы, фантастика,
Продолжительность: 1ч 29мин
Перевод: Профессиональный (многоголосый, закадровый)
Тип релиза: Лицензия

Режиссер: Тим Кокс
Продюссер: Кеннет М. Бэдиш, Боаз Дэвидсон, Джонни Мартин,
Сценарий: Кеннет М. Бэдиш, Боаз Дэвидсон

Бюджет: $1 500 000
Премьера в мире: 22 января 2005,

МРАА: R
IMDB;4.30 (673)
http://www.kinopoisk.ru/level/1/film/103521/

В ролях: Винсент Вентреска, Рэйчел Хантер, Уильям Форсайт, Дэвид Селби, Роберт Миано, Джэймс Дэрис, Джеймс Шелдон, Захари Стивенс, Джессика Саммерс.

Описание: Глухая американская провинция, городок в штате Миссури. Вроде бы без всякой особой причины здесь то домашний скот гибнет, то люди мрут. Только что приехавший сюда молодой ветеринарный врач Илай Радкас чувствует, что здесь есть какая-то тайна, и пытается ее разгадать.

Местный фермер Джейкоб Лонг, сторонник «теории заговоров», уверен, что во всем виноваты могущественные корпорации. Мэр городка заинтересован в том, чтобы происходящее

Доп. информация:
Полное имя : D:\кино\Larva.2005.dvdrip.avi
Формат : AVI
Формат/Информация : Audio Video Interleave
Размер файла : 742 Мбайт
Продолжительность : 1 ч. 29 м.
Общий поток : 1157 Кбит/сек
Программа кодирования : VirtualDubMod 1.5.10.2 (build 2540/release)
Библиотека кодирования : VirtualDubMod build 2540/release

Видео
Идентификатор : 0
Формат : MPEG-4 Visual
Профиль формата : Advanced Simple@L5
Параметр BVOP формата : 1
Параметр QPel формата : Нет
Параметр GMC формата : Без точки перехода
Параметр матрицы формата : Default (MPEG)
Идентификатор кодека : XVID
Идентификатор кодека/Подсказка : XviD
Продолжительность : 1 ч. 29 м.
Битрейт : 1019 Кбит/сек
Ширина : 576 пикс.
Высота : 432 пикс.
Соотношение сторон : 4:3
Частота кадров : 25,000 кадр/сек
Цветовое пространство : YUV
Подвыборка цветности : 4:2:0
Битовая глубина : 8 бит
Тип развёртки : Прогрессивная
Метод сжатия : С потерями
Бит/(Пиксели*Кадры) : 0.164
Размер потока : 654 Мбайт (88%)
Библиотека кодирования : XviD 1.2.0.dev47 (UTC 2006-11-01)

Аудио
Идентификатор : 1
Формат : MPEG Audio
Версия формата : Version 1
Профиль формата : Layer 3
Идентификатор кодека : 55
Идентификатор кодека/Подсказка : MP3
Продолжительность : 1 ч. 29 м.
Вид битрейта : Постоянный
Битрейт : 128 Кбит/сек
Канал(ы) : 2 канала(ов)
Частота : 48,0 КГц
Метод сжатия : С потерями
Размер потока : 82,2 Мбайт (11%)
Выравнивание : Соединение по промежуткам
Продолжительность промежутка : 40 мс. (1,00 видеокадр)
Время предзагрузки промежутка : 504 ms
Библиотека кодирования : LAME3.98r
Настройки программы : -m s -V 4 -q 2 -lowpass 17 -b 128
Качество: DVDRip
Формат: AVI
Видео кодек: XviD
Аудио кодек: MP3
Видео: 1019 Кбит/сек,576*432(4:3),25 000 кадр/сек,MPEG-4 Visual (XviD),(Advanced Simple@L5)
Аудио: 128 Кбит/сек,48.0 Кгц, 2 канала(ов),MPEG Audio (MP3 )(Version 1)(Lauer 3)




pb.wtf



Скачать Человек-личинка через торрент http://i26.fastpic.ru/big/2011/0707/ae/e8beed40cd519072681579268484f3ae.jpg Скачать фильм Человек-личинка через торрент бесплантно в хорошем качестве Описание: Глухая американская провинция, городок в штате Миссури. Вроде бы без всякой особой причины здесь то домашний скот гибнет, то люди ... 4.8 10 4
Info! Золотая раздача, скачанное не засчитывается.
Торрент: Зарегистрирован [2011-07-07 09:07] · скачан: 29 раз
Статус: √ проверено
Размер: 742 MB
Как cкачать? Как скачать Человек-личинка через торрент | UTorrent

% Раздел Тема Автор DL S | L
Фильмы 2001-2005 [ 1.46 GB ] Человек-личинка / Larva [2005 DVDRip многоголосый] DJERG Скачать
1 | 0
Фильмы 2001-2005 [ 1.37 GB ] Человек-личинка / Larva [2005 DVDRip] Sудья Скачать
1 | 0


Последний раз редактировалось: MrKuzj (2011-07-20 18:12), всего редактировалось 1 раз

28-11-2019 20:33  

Отключить всю рекламу на сайте

09-07-2011 07:00 Человек-личинка Скачать торрент  

сэнкpb.wtf



    Дорогой пользователь! Огромная просьба, поблагодарите релизера, оцените раздачу и оставьте свои комментарий, если Вы скачали Человек-личинка через торрент бесплатно! Внесите свою лепту в развитие PiratBit!
    Комментировать посты могут только пользователи прошедшие не сложную регистрацию
    Показать сообщения:    

    Человек-личинка через торрент
    Скачать бесплатно Человек-личинка
    Человек-личинка скачать торрент
    Человек-личинка смотреть онлайн
    Cкачать фильм Человек-личинка бесплатно
    Человек-личинка скачать торрент в хорошем качестве
    Человек-личинка смотреть онлайн бесплатно в хорошем качестве


    Вы не можете начинать темы
    Вы не можете отвечать на сообщения
    Вы не можете редактировать свои сообщения
    Вы не можете удалять свои сообщения
    Вы не можете голосовать в опросах
    Вы не можете прикреплять файлы к сообщениям
    Вы можете скачивать файлы