Ссылка на приватное зеркало нашего сайта всего за 1$. Внимание количество ограничено!!!

2 сезон

iTunes

1 сезон

1

iTunes

iTunes

iTunes

1 сезон

RePack

30

ИГРА 18+

pack

ВАЖНО

!!Акция!!

Alien_RageХит недели

RePack

MK11
pack

Забери бонус

RePack

jed

!!Акция!!

Alien_Rage

RePack

fifa19

RePack

Assassins Creed: Odyssey

RePack

NEED FOR SPEED™ PAYBACK

4 сезон

9 сезон

Бесстыжие 9 сезон

Все сериалы

все сериалы на PB.wtf

RePack

FAR CRY 5
  

Горбун из Нотр Дама 2 / The Hunchback of Notre Dame II (Брэдли Рэймонд / Bradley Raymond) [2002, мультфильм, приключения, семейный, DVDRip] MVO pb.wtf

Горбун из Нотр Дама 2 через торрент pb.wtf

Размер: 743 MB | Добавлен: 9 лет 3 мес. назад | Торрент скачан:142 раза
Скачать  

07-07-2011 12:07 Горбун из Нотр Дама 2 Скачать торрент  

Горбун из Нотр Дама 2 / The Hunchback of Notre Dame II«Miracles Do Happen and True Love Can Come True»
Страна: США
Жанр: мультфильм, приключения, семейный
Продолжительность: 01:03:11
Год выпуска: 2002
Перевод: Профессиональный (многоголосый закадровый)
Русские субтитры: нет
Режиссёр: Брэдли Рэймонд / Bradley Raymond

Описание: Продолжение приключений Диснеевского Квазимодо… Теперь, когда нет Фролло, Квазимодо звонит в колокол с помощью своего нового друга — малыша Зефира, сына Эсмеральды и Фоэбуса, но когда Квазимодо случайно заходит в странствующий цирк злого волшебника Саруша, он влюбляется в его ассистентку Мэделин, но жадный Саруш, заставляет Мэделин обманув Квазимодо, помочь украсть знаменитый колокол из Нотр-Даммского собора, который нужен ему, чтобы при помощи волшебства добиться могущества…
Качество: DVDRip
Формат: AVI
Видео кодек: XviD
Аудио кодек: МР3
Видео: 672x416 (1.62:1), 25 fps, XviD build 61, 1507 kbps avg, 0.22 bit/pixel
Аудио: Rus MPEG Audio Layer 3 48000Hz stereo 128kbps
Cубтитры: Отсутствуют
Format : AVIFormat/Info : Audio Video InterleaveFile size : 743 MiBDuration : 1h 3mnOverall bit rate : 1 645 KbpsWriting application : VirtualDubMod 1.5.10.3 | www.virtualdub-fr.org || (build 2550/release)Writing library : VirtualDubMod build 2550/release
VideoID : 0Format : MPEG-4 VisualFormat profile : Advanced Simple@L5Format settings, BVOP : 1Format settings, QPel : NoFormat settings, GMC : No warppointsFormat settings, Matrix : CustomCodec ID : XVIDCodec ID/Hint : XviDDuration : 1h 3mnBit rate : 1 507 KbpsWidth : 672 pixelsHeight : 416 pixelsDisplay aspect ratio : 1.615Frame rate : 25.000 fpsColor space : YUVChroma subsampling : 4:2:0Bit depth : 8 bitsScan type : ProgressiveCompression mode : LossyBits/(Pixel*Frame) : 0.216Stream size : 681 MiB (92%)Writing library : XviD 61
AudioID : 1Format : MPEG AudioFormat version : Version 1Format profile : Layer 3Codec ID : 55Codec ID/Hint : MP3 Duration : 1h 3mnBit rate mode : ConstantBit rate : 128 KbpsChannel(s) : 2 channelsSampling rate : 48.0 KHzCompression mode : LossyStream size : 57.8 MiB (8%)Alignment : Aligned on interleavesInterleave, duration : 40 ms (1.00 video frame)Interleave, preload duration : 504 msWriting library : LAME3.98rEncoding settings : -m s -V 4 -q 2 -lowpass 17 -b 128
pb.wtf



Скачать Горбун из Нотр Дама 2 через торрент http://i19.fastpic.ru/big/2011/0402/86/795f26999b62b09ae1846d1f59f14286.png Скачать фильм Горбун из Нотр Дама 2 через торрент бесплантно в хорошем качестве Описание: Продолжение приключений Диснеевского Квазимодо… Теперь, когда нет Фролло, Квазимодо звонит в колокол с помощью своего нового ... 5 10 8
Info! Золотая раздача, скачанное не засчитывается.
Торрент: Зарегистрирован [2011-07-07 12:07] · скачан: 142 раз
Статус: √ проверено
Размер: 743 MB
Как cкачать? Как скачать Горбун из Нотр Дама 2 через торрент | qTorrent



Последний раз редактировалось: ACFIORENTINA (2011-07-07 15:41), всего редактировалось 1 раз

28-11-2019 20:33  

Отключить всю рекламу на сайте

07-07-2011 15:36 Горбун из Нотр Дама 2 Скачать торрент  

Видео кодек и Аудио кодек отдельной строкой.pb.wtf



    Дорогой пользователь! Огромная просьба, поблагодарите релизера, оцените раздачу и оставьте свои комментарий, если Вы скачали Горбун из Нотр Дама 2 через торрент бесплатно! Внесите свою лепту в развитие PiratBit!
    Комментировать посты могут только пользователи прошедшие не сложную регистрацию
    Показать сообщения:    

    Горбун из Нотр Дама 2 через торрент
    Скачать бесплатно Горбун из Нотр Дама 2
    Горбун из Нотр Дама 2 скачать торрент
    Горбун из Нотр Дама 2 смотреть онлайн
    Cкачать фильм Горбун из Нотр Дама 2 бесплатно
    Горбун из Нотр Дама 2 скачать торрент в хорошем качестве
    Горбун из Нотр Дама 2 смотреть онлайн бесплатно в хорошем качестве


    Вы не можете начинать темы
    Вы не можете отвечать на сообщения
    Вы не можете редактировать свои сообщения
    Вы не можете удалять свои сообщения
    Вы не можете голосовать в опросах
    Вы не можете прикреплять файлы к сообщениям
    Вы можете скачивать файлы