Ссылка на приватное зеркало нашего сайта всего за 1$. Внимание количество ограничено!!!

2 сезон

iTunes

1 сезон

1

iTunes

iTunes

iTunes

1 сезон

RePack

30

ИГРА 18+

pack

ВАЖНО

!!Акция!!

Alien_RageХит недели

RePack

MK11
pack

Забери бонус

RePack

jed

!!Акция!!

Alien_Rage

RePack

fifa19

RePack

Assassins Creed: Odyssey

RePack

NEED FOR SPEED™ PAYBACK

4 сезон

9 сезон

Бесстыжие 9 сезон

Все сериалы

все сериалы на PB.wtf

RePack

FAR CRY 5
  

Скуби-Ду и Призрак Ведьмы / Scooby-Doo and the Witch's Ghost (Джим Стенструм / Jim Stenstrum) [1999, мультфильм, DVDRip-AVC] DUB pb.wtf

Скуби-Ду и Призрак Ведьмы через торрент pb.wtf

Размер: 699 MB | Добавлен: 9 лет 3 мес. назад | Торрент скачан:340 раз
Скачать  

09-07-2011 17:55 Скуби-Ду и Призрак Ведьмы Скачать торрент  

Скуби-Ду и Призрак Ведьмы / Scooby-Doo and the Witch's Ghost
Страна: США
Жанр: мультфильм
Продолжительность: 01:07:14
Год выпуска: 1999
Перевод: Профессиональный (дублированный)
Русские субтитры: нет
Режиссёр: Джим Стенструм / Jim Stenstrum
Роли озвучивали: Дон Мессик, Кэйси Касэм, Соррел Бук, Уильям Колэуэй, Виктория Кэрролл, Джерри Хаузер, Арте Джонсон, Роб Полсен, Майкл Рай, Ронни Шелл
Описание: Когда компания друзей знакомится со знаменитым автором романов ужасов Беном Рэйвенкрофтом, он приглашает их в свой родной город на осенний Праздник урожая. Все оборачивается загадочным приключением: в городке обитает привидение одного из предков Бена — знаменитой Сары.
Доп. информация: Спасибо тем людям которые делали всю работу по созданию качественного DVD: AlexMosF1, Shellters-bob.
Семпл: Скачать
Качество: DVDRip-AVC
Формат: MKV
Видео кодек: AVC
Аудио кодек:AC3
Видео: AVC; 720x480 (4:3); 1292 Kbps; 23,976 fps; 0,156 bpp
Аудио: Russian; AC3; 160 Kbps; CBR; 2 ch; 16 bit
Субтитры: отсутствуют

Код:

Общее
Уникальный идентификатор         : 187756616001232125247002359625564200472 (0x8D409BE0F59EC9729727407E292A9E18)
Формат                           : Matroska
Размер файла                     : 699 Мбайт
Продолжительность                : 1 ч. 7 м.
Общий поток                      : 1452 Кбит/сек
Дата кодирования                 : UTC 2011-02-16 08:05:21
Программа кодирования            : mkvmerge v3.2.0 ('Beginnings') built on Feb 12 2010 16:46:17
Библиотека кодирования           : libebml v0.7.9 + libmatroska v0.8.1
Видео
Идентификатор                    : 1
Формат                           : AVC
Формат/Информация                : Advanced Video Codec
Профиль формата                  : High@L4.0
Параметр CABAC формата           : Да
Параметр ReFrames формата        : 16 кадры
Идентификатор кодека             : V_MPEG4/ISO/AVC
Продолжительность                : 1 ч. 7 м.
Битрейт                          : 1292 Кбит/сек
Ширина                           : 720 пикс.
Высота                           : 480 пикс.
Соотношение сторон               : 4:3
Частота кадров                   : 23,976 кадр/сек
Стандарт вещания                 : NTSC
Цветовое пространство            : YUV
Подвыборка цветности             : 4:2:0
Битовая глубина                  : 8 бит
Тип развёртки                    : Прогрессивная
Бит/(Пиксели*Кадры)              : 0.156
Размер потока                    : 608 Мбайт (87%)
Заголовок                        : DVDRip.DVD5.by.WoRG
Библиотека кодирования           : x264 core 114 r1900 60ef1f8
Настройки программы              : cabac=1 / ref=16 / deblock=1:1:1 / analyse=0x3:0x133 / me=umh / subme=9 / psy=1 / psy_rd=0.40:0.00 / mixed_ref=1 / me_range=24 / chroma_me=1 / trellis=2 / 8x8dct=1 / cqm=0 / deadzone=21,11 / fast_pskip=1 / chroma_qp_offset=-2 / threads=3 / sliced_threads=0 / nr=0 / decimate=1 / interlaced=0 / constrained_intra=0 / bframes=10 / b_pyramid=2 / b_adapt=2 / b_bias=0 / direct=3 / weightb=1 / open_gop=0 / weightp=2 / keyint=250 / keyint_min=23 / scenecut=40 / intra_refresh=0 / rc_lookahead=60 / rc=2pass / mbtree=1 / bitrate=1292 / ratetol=1.0 / qcomp=0.60 / qpmin=0 / qpmax=69 / qpstep=4 / cplxblur=20.0 / qblur=0.5 / ip_ratio=1.40 / aq=1:0.60
Язык                             : English
Аудио
Идентификатор                    : 2
Формат                           : AC-3
Формат/Информация                : Audio Coding 3
Расширение режима                : CM (complete main)
Идентификатор кодека             : A_AC3
Продолжительность                : 1 ч. 7 м.
Вид битрейта                     : Постоянный
Битрейт                          : 160 Кбит/сек
Канал(ы)                         : 2 канала(ов)
Расположение каналов             : Front: L R
Частота                          : 48,0 КГц
Битовая глубина                  : 16 бит
Метод сжатия                     : С потерями
Размер потока                    : 77,0 Мбайт (11%)
Язык                             : Russian

pb.wtf



Скачать Скуби-Ду и Призрак Ведьмы через торрент http://s58.radikal.ru/i161/1102/94/66a2aee88cb0.jpg Скачать фильм Скуби-Ду и Призрак Ведьмы через торрент бесплантно в хорошем качестве Описание: Когда компания друзей знакомится со знаменитым автором романов ужасов Беном Рэйвенкрофтом, он приглашает их в свой родной город ... 10 10 7
Info! Золотая раздача, скачанное не засчитывается.
Торрент: Зарегистрирован [2011-07-09 17:55] · скачан: 340 раз
Статус: √ проверено
Размер: 699 MB
Как cкачать? Как скачать Скуби-Ду и Призрак Ведьмы через торрент | qTorrent

28-11-2019 20:33  

Отключить всю рекламу на сайте

13-11-2011 14:38 Скуби-Ду и Призрак Ведьмы Скачать торрент  

спасибо за релиз!
пацан заказал. забираюpb.wtf



    Дорогой пользователь! Огромная просьба, поблагодарите релизера, оцените раздачу и оставьте свои комментарий, если Вы скачали Скуби-Ду и Призрак Ведьмы через торрент бесплатно! Внесите свою лепту в развитие PiratBit!
    Комментировать посты могут только пользователи прошедшие не сложную регистрацию
    Показать сообщения:    

    Скуби-Ду и Призрак Ведьмы через торрент
    Скачать бесплатно Скуби-Ду и Призрак Ведьмы
    Скуби-Ду и Призрак Ведьмы скачать торрент
    Скуби-Ду и Призрак Ведьмы смотреть онлайн
    Cкачать фильм Скуби-Ду и Призрак Ведьмы бесплатно
    Скуби-Ду и Призрак Ведьмы скачать торрент в хорошем качестве
    Скуби-Ду и Призрак Ведьмы смотреть онлайн бесплатно в хорошем качестве


    Вы не можете начинать темы
    Вы не можете отвечать на сообщения
    Вы не можете редактировать свои сообщения
    Вы не можете удалять свои сообщения
    Вы не можете голосовать в опросах
    Вы не можете прикреплять файлы к сообщениям
    Вы можете скачивать файлы