Ссылка на приватное зеркало нашего сайта всего за 1$. Внимание количество ограничено!!!

2 сезон

iTunes

1 сезон

1

iTunes

iTunes

iTunes

1 сезон

RePack

30

ИГРА 18+

pack

ВАЖНО

!!Акция!!

Alien_RageХит недели

RePack

MK11
pack

Забери бонус

RePack

jed

!!Акция!!

Alien_Rage

RePack

fifa19

RePack

Assassins Creed: Odyssey

RePack

NEED FOR SPEED™ PAYBACK

4 сезон

9 сезон

Бесстыжие 9 сезон

Все сериалы

все сериалы на PB.wtf

RePack

FAR CRY 5
  

Последний дом слева / The Last House on the Left / Unrated (Дэннис Илиадис) [2009 г., Ужасы, триллер, BDRip 1080р] pb.wtf

Последний дом слева через торрент pb.wtf

Размер: 13.68 GB | Добавлен: 9 лет 3 мес. назад | Торрент скачан:62 раза
Скачать  

09-07-2011 18:45 Последний дом слева Скачать торрент  

Последний дом слева
The Last House on the Left / Unrated


«Смерть еще нужно заслужить»



Год выпуска: 2009
Страна: США
Жанр: Ужасы, триллер
Продолжительность: 01:53:37
Перевод: Профессиональный (полное дублирование)

Режиссер: Дэннис Илиадис

В ролях: Гаррет Диллахант, Майкл Боуэн, Джошуа Кокс, Рики Линдхоум, Аарон Пол, Сара Пэкстон, Моника Поттер, Тони Голдуин, Марта МакАйсак, Спенсер Трит Кларк

Описание: Остановившись в домике на берегу озера Коллинвуд, Мэри и ее друг попадают в руки беглого преступника и его шайки. Чудом спасшись, Мэри бежит к родителям, Джону и Эмме, живущим неподалеку. Их дом также привлекает преступников, ищущих надежное укрытие. Но там их уже ждут.

Рип от: HiDt

Качество: BDRip 1080р
Формат: MKV
Видео кодек: AVC
Аудио кодек: DTS
Видео: AVC, 15.0 Mbps, 1920 x 1040 pixels, 23.976 fps, Bits/(Pixel*Frame) : 0.313
Audio #1 DTS, 755 Kbps, 6 channels, 48.0 KHz
Language : ru
Audio #2 DTS, 1 510 Kbps, 6 channels, 48.0 KHz
Language : en
Text #1 : UTF-8
Language : ru
Text #2 : ASS
Language : en
Complete name Poslednij.dom.sleva.Unrated.2009.x264.BDRip.1080p.HiDt.mkv
Format : Matroska
File size : 13.7 GiB
Duration : 1h 53mn
Overall bit rate : 17.2 Mbps
Encoded date : UTC 2010-10-19 12:06:32
Writing application : mkvmerge v3.4.0 ('Rapunzel') сборка от May 15 2010 09:38:20
Writing library : libebml v0.8.0 + libmatroska v0.9.0

Video
ID : 1
Format : AVC
Format/Info : Advanced Video Codec
Format profile : High@L4.1
Format settings, CABAC : Yes
Format settings, ReFrames : 4 frames
Codec ID : V_MPEG4/ISO/AVC
Duration : 1h 53mn
Bit rate : 15.0 Mbps
Width : 1 920 pixels
Height : 1 040 pixels
Display aspect ratio : 16:9
Frame rate : 23.976 fps
Color space : YUV
Chroma subsampling : 4:2:0
Bit depth : 8 bits
Scan type : Progressive
Bits/(Pixel*Frame) : 0.313
Stream size : 11.6 GiB (85%)
Title : Rip by ---------> HiDt
Writing library : x264 core 68 r1183M f21daff
Encoding settings : cabac=1 / ref=4 / deblock=1:-3:-3 / analyse=0x3:0x113 / me=umh / subme=9 / psy_rd=1.0:0.0 / mixed_ref=1 / me_range=32 / chroma_me=1 / trellis=2 / 8x8dct=1 / cqm=0 / deadzone=21,11 / chroma_qp_offset=-2 / threads=6 / nr=0 / decimate=1 / mbaff=0 / bframes=5 / b_pyramid=1 / b_adapt=2 / b_bias=0 / direct=3 / wpredb=1 / keyint=250 / keyint_min=25 / scenecut=40 / rc=2pass / bitrate=14968 / ratetol=1.0 / qcomp=0.60 / qpmin=10 / qpmax=51 / qpstep=4 / cplxblur=20.0 / qblur=0.5 / ip_ratio=1.40 / pb_ratio=1.30 / aq=1:0.80
Language : English

Audio #1
ID : 2
Format : DTS
Format/Info : Digital Theater Systems
Codec ID : A_DTS
Duration : 1h 53mn
Bit rate mode : Constant
Bit rate : 755 Kbps
Channel(s) : 6 channels
Channel positions : Front: L C R, Side: L R, LFE
Sampling rate : 48.0 KHz
Bit depth : 24 bits
Compression mode : Lossy
Stream size : 613 MiB (4%)
Title : DUB - DTS, 48 kHz, 6ch, 768 kbps
Language : Russian

Audio #2
ID : 3
Format : DTS
Format/Info : Digital Theater Systems
Codec ID : A_DTS
Duration : 1h 53mn
Bit rate mode : Constant
Bit rate : 1 510 Kbps
Channel(s) : 6 channels
Channel positions : Front: L C R, Side: L R, LFE
Sampling rate : 48.0 KHz
Bit depth : 24 bits
Compression mode : Lossy
Stream size : 1.20 GiB (9%)
Title : English DTS 5.1
Language : English

Text #1
ID : 4
Format : UTF-8
Codec ID : S_TEXT/UTF8
Codec ID/Info : UTF-8 Plain Text
Title : Russian
Language : Russian

Text #2
ID : 5
Format : ASS
Codec ID : S_TEXT/ASS
Codec ID/Info : Advanced Sub Station Alpha
Compression mode : Lossless
Title : English
Language : English
pb.wtf



Скачать Последний дом слева через торрент http://i3.imageban.ru/out/2011/07/09/abe4e75dfcef2c00aa185c21a08c572a.png Скачать фильм Последний дом слева через торрент бесплантно в хорошем качестве Описание: Остановившись в домике на берегу озера Коллинвуд, Мэри и ее друг попадают в руки беглого преступника и его шайки. Чудом спасшись, ... 10 10 2
Info! Золотая раздача, скачанное не засчитывается.
Торрент: Зарегистрирован [2011-07-09 18:45] · скачан: 62 раз
Статус: √ проверено
Размер: 13.68 GB
Как cкачать? Как скачать Последний дом слева через торрент | qTorrent

% Раздел Тема Автор DL S | L
Фильмы [HD 720p, 1080p] (Хороший звук DUB, MVO) [ 11.5 GB ] Последний дом слева / The Last House on the Left [2009 BDRip 1080p от _denis_100 / NNNB] Dub + Sub Rus Eng + Original Eng _denis_100 Скачать
1 | 0
Фильмы (Blu-ray, BD-Remux, HDDVD) [ 20.73 GB ] Последний дом слева / The Last House on the Left / Unrated [2009 BDRemux 1080p] DUB Ворон Скачать
1 | 0
Фильмы 2009 [ 1.85 GB ] Последний дом слева / The Last House on the Left [2009 HDRip-AVC][720P] DUB+Original [UNRATED] Kristian Larsson Скачать
1 | 0

28-11-2019 20:33  

Отключить всю рекламу на сайте

09-07-2011 19:31 Последний дом слева Скачать торрент  

фильм однозначно хороший.а вот раздача хреновая(pb.wtf



09-07-2011 22:34 Последний дом слева Скачать торрент  

Всем кто фильм не видел-срочно посмотреть.pb.wtf



10-07-2011 05:57 Последний дом слева Скачать торрент  

Фильм очень хороший.Я его смотрел,правда не в качестве.Спасибо релизеру если раздает нормально.pb.wtf



    Дорогой пользователь! Огромная просьба, поблагодарите релизера, оцените раздачу и оставьте свои комментарий, если Вы скачали Последний дом слева через торрент бесплатно! Внесите свою лепту в развитие PiratBit!
    Комментировать посты могут только пользователи прошедшие не сложную регистрацию
    Показать сообщения:    

    Последний дом слева через торрент
    Скачать бесплатно Последний дом слева
    Последний дом слева скачать торрент
    Последний дом слева смотреть онлайн
    Cкачать фильм Последний дом слева бесплатно
    Последний дом слева скачать торрент в хорошем качестве
    Последний дом слева смотреть онлайн бесплатно в хорошем качестве


    Вы не можете начинать темы
    Вы не можете отвечать на сообщения
    Вы не можете редактировать свои сообщения
    Вы не можете удалять свои сообщения
    Вы не можете голосовать в опросах
    Вы не можете прикреплять файлы к сообщениям
    Вы можете скачивать файлы