Ссылка на приватное зеркало нашего сайта всего за 1$. Внимание количество ограничено!!!

2 сезон

iTunes

1 сезон

1

iTunes

iTunes

iTunes

1 сезон

RePack

30

ИГРА 18+

pack

ВАЖНО

!!Акция!!

Alien_RageХит недели

RePack

MK11
pack

Забери бонус

RePack

jed

!!Акция!!

Alien_Rage

RePack

fifa19

RePack

Assassins Creed: Odyssey

RePack

NEED FOR SPEED™ PAYBACK

4 сезон

9 сезон

Бесстыжие 9 сезон

Все сериалы

все сериалы на PB.wtf

RePack

FAR CRY 5
  

Не отпускай меня / Never Let Me Go (Марк Романек) [2010 г., фантастика, триллер, драма, BDRip 1080р] pb.wtf

Не отпускай меня через торрент pb.wtf

Размер: 12.03 GB | Добавлен: 9 лет 3 мес. назад | Торрент скачан:89 раз
Скачать  

10-07-2011 14:12 Не отпускай меня Скачать торрент  

Не отпускай меня
Never Let Me Go




Год выпуска: 2010
Страна: США, Великобритания
Жанр: фантастика, триллер, драма
Продолжительность: 01:44:02
Перевод: Профессиональное (многоголосое) [лицензия]

Режиссер: Марк Романек

В ролях: Кэри Маллиган, Эндрю Гарфилд, Кира Найтли,Иззи Мейкл-Смолл, Чарли Роу, Элла Пурнелла, Шарлотта Рэмплинг, Салли Хокинс, Кейт Боуc Ренна, Ханна Шарп.

Описание: Троица главных героев выросла в интернате и была лишена любого контакта с окружающим миром. Но со временем друзья узнают, что они на самом деле — клоны, выращиваемые для донорства органов.

Качество: BDRip 1080р
Формат: MKV
Видео кодек: AVC
Аудио кодек: DTS
Видео: AVC, 14.3 Mbps, 1920 x 816 pixels, 23.976 fps, Bits/(Pixel*Frame) : 0.381
Audio #1 DTS, 755 Kbps, 6 channels, 48.0 KHz: ru
Audio #2 DTS, 1 510 Kbps, 6 channels, 48.0 KHz: en
Text #1 : UTF-8 : ru
Text #2 : UTF-8 : en
Complete name Never Let Me Go 2010 1080p BluRay DTS x264-CtrlHD.mkv
Format : Matroska
File size : 12.0 GiB
Duration : 1h 44mn
Overall bit rate : 16.6 Mbps
Movie name : -Talian-
Encoded date : UTC 2011-07-09 11:32:36
Writing application : mkvmerge v3.3.0 ('Language') сборка от May 14 2010 17:11:50
Writing library : libebml v0.8.0 + libmatroska v0.9.0

Video
ID : 1
Format : AVC
Format/Info : Advanced Video Codec
Format profile : High@L4.1
Format settings, CABAC : Yes
Format settings, ReFrames : 5 frames
Codec ID : V_MPEG4/ISO/AVC
Duration : 1h 44mn
Bit rate : 14.3 Mbps
Width : 1 920 pixels
Height : 816 pixels
Display aspect ratio : 2.35:1
Frame rate : 23.976 fps
Color space : YUV
Chroma subsampling : 4:2:0
Bit depth : 8 bits
Scan type : Progressive
Bits/(Pixel*Frame) : 0.381
Stream size : 10.1 GiB (84%)
Title : Never Let Me Go 2010 1080p BluRay DTS x264-CtrlHD
Writing library : x264 core 114 r1900 60ef1f8
Encoding settings : cabac=1 / ref=5 / deblock=1:-3:-3 / analyse=0x3:0x133 / me=tesa / subme=10 / psy=1 / psy_rd=1.05:0.00 / mixed_ref=1 / me_range=32 / chroma_me=1 / trellis=2 / 8x8dct=1 / cqm=0 / deadzone=21,11 / fast_pskip=0 / chroma_qp_offset=-2 / threads=12 / sliced_threads=0 / nr=0 / decimate=1 / interlaced=0 / constrained_intra=0 / bframes=7 / b_pyramid=2 / b_adapt=2 / b_bias=0 / direct=3 / weightb=1 / open_gop=0 / weightp=2 / keyint=250 / keyint_min=23 / scenecut=40 / intra_refresh=0 / rc_lookahead=40 / rc=2pass / mbtree=1 / bitrate=14300 / ratetol=1.0 / qcomp=0.60 / qpmin=0 / qpmax=69 / qpstep=4 / cplxblur=20.0 / qblur=0.5 / ip_ratio=1.40 / aq=1:0.80
Language : English

Audio #1
ID : 2
Format : DTS
Format/Info : Digital Theater Systems
Codec ID : A_DTS
Duration : 1h 44mn
Bit rate mode : Constant
Bit rate : 755 Kbps
Channel(s) : 6 channels
Channel positions : Front: L C R, Side: L R, LFE
Sampling rate : 48.0 KHz
Bit depth : 24 bits
Compression mode : Lossy
Delay relative to video : 11ms
Stream size : 561 MiB (5%)
Title : MVO-Blu-ray
Language : Russian

Audio #2
ID : 3
Format : DTS
Format/Info : Digital Theater Systems
Codec ID : A_DTS
Duration : 1h 44mn
Bit rate mode : Constant
Bit rate : 1 510 Kbps
Channel(s) : 6 channels
Channel positions : Front: L C R, Side: L R, LFE
Sampling rate : 48.0 KHz
Bit depth : 24 bits
Compression mode : Lossy
Delay relative to video : 55ms
Stream size : 1.10 GiB (9%)
Title : Original
Language : English

Text #1
ID : 4
Format : UTF-8
Codec ID : S_TEXT/UTF8
Codec ID/Info : UTF-8 Plain Text
Title : Sub
Language : Russian

Text #2
ID : 5
Format : UTF-8
Codec ID : S_TEXT/UTF8
Codec ID/Info : UTF-8 Plain Text
Title : Sub
Language : English

Menu
00:00:00.000 : en:00:00:00.000
00:05:01.510 : en:00:05:01.510
00:07:41.753 : en:00:07:41.753
00:11:57.050 : en:00:11:57.050
00:16:22.273 : en:00:16:22.273
00:18:50.087 : en:00:18:50.087
00:22:41.694 : en:00:22:41.694
00:25:57.139 : en:00:25:57.139
00:29:32.229 : en:00:29:32.229
00:32:35.412 : en:00:32:35.412
00:35:11.276 : en:00:35:11.276
00:38:26.012 : en:00:38:26.012
00:42:37.054 : en:00:42:37.054
00:47:39.607 : en:00:47:39.607
00:51:11.777 : en:00:51:11.777
00:54:11.915 : en:00:54:11.915
00:56:13.287 : en:00:56:13.287
01:00:12.400 : en:01:00:12.400
01:05:12.408 : en:01:05:12.408
01:10:27.432 : en:01:10:27.432
01:12:50.950 : en:01:12:50.950
01:15:27.148 : en:01:15:27.148
01:18:26.160 : en:01:18:26.160
01:19:40.317 : en:01:19:40.317
01:21:25.964 : en:01:21:25.964
01:26:30.227 : en:01:26:30.227
01:32:53.401 : en:01:32:53.401
01:37:01.649 : en:01:37:01.649
pb.wtf



Скачать Не отпускай меня через торрент http://i3.imageban.ru/out/2011/07/10/7062935e51b812060ae311d0824e1020.png Скачать фильм Не отпускай меня через торрент бесплантно в хорошем качестве Описание: Троица главных героев выросла в интернате и была лишена любого контакта с окружающим миром. Но со временем друзья узнают, что они ... 5 10 1
Info! Золотая раздача, скачанное не засчитывается.
Торрент: Зарегистрирован [2011-07-10 14:12] · скачан: 89 раз
Статус: √ проверено
Размер: 12.03 GB
Как cкачать? Как скачать Не отпускай меня через торрент | qTorrent

% Раздел Тема Автор DL S | L
Фильмы 2010 [ 1.37 GB ] Не отпускай меня / Never Let Me Go [2010 HDRip лицензия] Чупачупсик Скачать
1 | 0
Фильмы [HD 720p, 1080p] (Хороший звук DUB, MVO) [ 5.46 GB ] Не отпускай меня / Never let me go [2010 BDRip ] Flint3 Скачать
1 | 0
Фильмы 2010 [ 700 MB ] Не отпускай меня / Never Let Me Go [2010 HDRip] coc900 Скачать
1 | 0

28-11-2019 20:33  

Отключить всю рекламу на сайте

    Дорогой пользователь! Огромная просьба, поблагодарите релизера, оцените раздачу и оставьте свои комментарий, если Вы скачали Не отпускай меня через торрент бесплатно! Внесите свою лепту в развитие PiratBit!
    Комментировать посты могут только пользователи прошедшие не сложную регистрацию
    Показать сообщения:    

    Не отпускай меня через торрент
    Скачать бесплатно Не отпускай меня
    Не отпускай меня скачать торрент
    Не отпускай меня смотреть онлайн
    Cкачать фильм Не отпускай меня бесплатно
    Не отпускай меня скачать торрент в хорошем качестве
    Не отпускай меня смотреть онлайн бесплатно в хорошем качестве


    Вы не можете начинать темы
    Вы не можете отвечать на сообщения
    Вы не можете редактировать свои сообщения
    Вы не можете удалять свои сообщения
    Вы не можете голосовать в опросах
    Вы не можете прикреплять файлы к сообщениям
    Вы можете скачивать файлы