2 сезон

iTunes

MVO

1

2 сезон

iTunes

iTunes

1 сезон

RePack

30

Новинка

ВАЖНО

ИГРА 18+

pack

RePack

MK11
pack

Легкие деньги

RePack

jed

RePack

fifa19

RePack

RDR2

RePack

NEED FOR SPEED™ PAYBACK

4 сезон

9 сезон

Бесстыжие 9 сезон

Все сериалы

все сериалы на PB.wtf

RePack

FAR CRY 5

Anonymous, добрый вечер, мы не успеваем собрать деньги на оплату серверов за декабрь и январь, помогите нам пожалуйста в это трудное время. В качестве благодарности мы отключим Вам всю рекламу на сайте (укажите свой ник в строку Ваше имя)!

×
  
Magnet ссылка

Стьюи Гриффин: Нерассказанная история / Family Guy Presents Stewie Griffin: The Untold Story (Пит Мишелс, Питер Шин) [2005 г., мультфильм, комедия, приключения, DVDRip] pb.wtf

Стьюи Гриффин: Нерассказанная история через торрент pb.wtf

Размер: 484 MB | Добавлен: 9 лет 6 мес. назад | Торрент скачан:4 раза
Скачать  

11-07-2011 06:45 Стьюи Гриффин: Нерассказанная история Скачать торрент  

Стьюи Гриффин: Нерассказанная история / Family Guy Presents Stewie Griffin: The Untold Story

Год выпуска: 2005
Страна: США
Жанр: мультфильм, комедия, приключения
Продолжительность: 88 мин.
Перевод: Профессиональный (многоголосый, закадровый)

Режиссер: Пит Мишелс, Питер Шин
Продюссер: Кара Вэллоу, Алекс Борштейн, Крис Шеридан
Сценарий: Сет МакФарлейн, Джон Винер, Черри Чеваправатдумронг

Мировой рейтинг IMDB 7.70 (21 148)


В ролях: Сет МакФарлейн /Seth MacFarlane/, Алекс Борштейн /Alex Borstein/, Сет Грин /Seth Green/, Мила Кунис /Mila Kunis/, Лори Алан /Lori Alan/, Дрю Бэрримор /Drew Barrymore/

Описание: Полнометражный фильм "Гриффинов" - по сути, и есть подборка этих лучших особенностей сериала. История Стьюи Гриффина - основная сюжетная линия фильма - долгий путь в пространстве и во времени в поисках своего "я"... Вместе с парой других сюжетов и кучей первосортного юмора получается очень хорошее кино. Эта полнометражка завоевала три награды: Cinema Audio Society, USA (C.A.S. Award), DVD Exclusive Awards (DVDX Award).

Качество: DVDRip
Формат: MP4
Видео кодек: MPEG4
Аудио кодек: AAC
Видео: MPEG-4 Visual, 320х240, 512 kbps, 25,000 кадр/сек
Аудио: AAC, 128 Кбит/сек, 2 канала(ов), 44,1 КГц.



Общее
Полное имя : D:\Свалка\Stewie.Griffin.-.The.Untold.Story.rus.eng.FiliZa.ru_x264.mp4
Формат : MPEG-4
Профиль формата : Base Media / Version 2
Идентификатор кодека : mp42
Размер файла : 484 Мбайт
Продолжительность : 1 ч. 28 м.
Общий поток : 764 Кбит/сек
Дата кодирования : UTC 2011-07-05 17:25:44
Дата пометки : UTC 2011-07-05 17:26:08
Программа кодирования : mp4creator 1.4.4

Видео
Идентификатор : 1
Формат : AVC
Формат/Информация : Advanced Video Codec
Профиль формата : Baseline@L1.3
Параметр CABAC формата : Нет
Параметр ReFrames формата : 2 кадра
Идентификатор кодека : avc1
Идентификатор кодека/Информация : Advanced Video Coding
Продолжительность : 1 ч. 28 м.
Вид битрейта : Переменный
Битрейт : 637 Кбит/сек
Ширина : 320 пикс.
Высота : 240 пикс.
Соотношение сторон : 4:3
Режим частоты кадров : Постоянный
Частота кадров : 25,000 кадр/сек
Цветовое пространство : YUV
Подвыборка цветности : 4:2:0
Битовая глубина : 8 бит
Тип развёртки : Прогрессивная
Бит/(Пиксели*Кадры) : 0.332
Размер потока : 403 Мбайт (83%)
Язык : English
Дата кодирования : UTC 2011-07-05 17:25:44
Дата пометки : UTC 2011-07-05 17:26:03

Аудио
Идентификатор : 2
Формат : AAC
Формат/Информация : Advanced Audio Codec
Профиль формата : LC
Идентификатор кодека : 40
Продолжительность : 1 ч. 28 м.
Вид битрейта : Переменный
Битрейт : 126 Кбит/сек
Максимальный битрейт : 256 Кбит/сек
Каналы : 2 канала
Расположение каналов : Front: L R
Частота : 44,1 КГц
Метод сжатия : С потерями
Размер потока : 79,4 Мбайт (16%)
Язык : English
Дата кодирования : UTC 2011-07-05 17:26:03
Дата пометки : UTC 2011-07-05 17:26:08
pb.wtf



Скачать Стьюи Гриффин: Нерассказанная история через торрент http://f.kinsburg.ru/thumbs/10977.jpg Скачать фильм Стьюи Гриффин: Нерассказанная история через торрент бесплантно в хорошем качестве Описание: Полнометражный фильм "Гриффинов" - по сути, и есть подборка этих лучших особенностей сериала. История Стьюи Гриффина - основная ... 10 10 1
Info! Золотая раздача, скачанное не засчитывается.
Торрент: Зарегистрирован [2011-07-11 06:45] · скачан: 4 раз
Статус: √ проверено
Размер: 484 MB
Как cкачать? Как скачать Стьюи Гриффин: Нерассказанная история через торрент | UTorrent

% Раздел Тема Автор DL S | L
Иностранные мультфильмы [ 1.37 GB ] Стьюи Гриффин: Нерассказанная история / Family Guy Presents-Stewie Griffin: The Untold Story [2005 мультфильм ... DVDRip лицензия] Stone_is_Land Скачать
1 | 0

28-11-2019 20:33  

Отключить всю рекламу на сайте

    Дорогой пользователь! Огромная просьба, поблагодарите релизера, оцените раздачу и оставьте свои комментарий, если Вы скачали Стьюи Гриффин: Нерассказанная история через торрент бесплатно! Внесите свою лепту в развитие PiratBit!
    Комментировать посты могут только пользователи прошедшие не сложную регистрацию
    Показать сообщения:    

    Стьюи Гриффин: Нерассказанная история через торрент
    Скачать бесплатно Стьюи Гриффин: Нерассказанная история
    Стьюи Гриффин: Нерассказанная история скачать торрент
    Стьюи Гриффин: Нерассказанная история смотреть онлайн
    Cкачать фильм Стьюи Гриффин: Нерассказанная история бесплатно
    Стьюи Гриффин: Нерассказанная история скачать торрент в хорошем качестве
    Стьюи Гриффин: Нерассказанная история смотреть онлайн бесплатно в хорошем качестве


    Вы не можете начинать темы
    Вы не можете отвечать на сообщения
    Вы не можете редактировать свои сообщения
    Вы не можете удалять свои сообщения
    Вы не можете голосовать в опросах
    Вы не можете прикреплять файлы к сообщениям
    Вы можете скачивать файлы