1 сезон

3 сезон

iTunes

1

Line

MVO

iTunes

13

1 сезон

RePack

30

Deluxe

pack

Лицензия

ВАЖНО

ИГРА 18+

pack

RePack

MK11

RePack

jed

RePack

fifa19

RePack

RDR2

RePack

NEED FOR SPEED™ PAYBACK

4 сезон

9 сезон

Бесстыжие 9 сезон

Все сериалы

все сериалы на PB.wtf

RePack

FAR CRY 5

Anonymous, доброе утро, мы катастрофически не успеваем собрать деньги на оплату серверов, помогите нам пожалуйста 5,10,15р., для нас важна любая помощь . В качестве благодарности мы отключим Вам всю рекламу на сайте (укажите свой ник в строку Ваше имя)!

×
  
Magnet ссылка

Я солдат / When Soldiers Cry (Джо Блэк / Joe Black) [2010, США, боевик, военный, DVD9] R5 «Lizard Cinema Trade» pb.wtf

Я солдат через торрент pb.wtf

Размер: 5.41 GB | Добавлен: 10 лет назад | Торрент скачан:111 раз
Скачать  

11-07-2011 10:10 Я солдат Скачать торрент  


Я солдат / When Soldiers Cry
Страна: США
Жанр: боевик, военный
Год выпуска: 2010
Мировая премьера: 2 февраля 2010
Продолжительность: 01:49:52
Перевод: Профессиональный (многоголосый закадровый) [Лицензия]
Cубтитры: русские
Оригинальная аудиодорожка: английский
Режиссер: Джо Блэк / Joe Black
В ролях: Джесс Вебер, Даг Джуниор, Кристин Сарджент, Роберт Бозек, Брэд Хольцер, Тара Алексис, Крис Пера, Джон Краузе
Описание: Бескомпромиссный рассказ об ужасах войны во Вьетнаме, которая стала одним из самых кровавых конфликтов второй половины XX века. Фильм открывает перед нами весь ужас войны в джунглях, где солдаты, оказавшись один на один с безжалостным врагом, вынуждены забыть обо всех принципах цивилизованных людей. Борясь за свою жизнь, они руководствуются только первобытными инстинктами, постепенно теряя человеческий облик. Готовые на все, лишь бы выбраться из проклятого места живыми…
Бонусы: нет

Качество: DVD9 R5
Формат: DVD-Video
Видео кодек: MPEG2
Аудио кодек: AC3
Видео: PAL 4:3 (720x576(0.580)) MPEG Video, 25,000 кадр/сек, 6013 Кбит/сек
Аудио #1: Russian (Dolby AC3, 6 ch) 384 Кбит/сек, 48,0 КГц [многоголоска]
Аудио #2: Russian (Dolby AC3, 2 ch) 192 Кбит/сек, 48,0 КГц [многоголоска]
Аудио #3: English (Dolby AC3, 2 ch) 192 Кбит/сек, 48,0 КГц



Title: Мой диск
Size: 5.41 Gb ( 5 675 740 KBytes ) - DVD-9
Enabled regions: 1, 2, 3, 4, 5, 6, 7, 8

VTS_01 :
Play Length: 00:00:20
Video: PAL 4:3 (720x576) VBR
Audio:
Russian (Dolby AC3, 2 ch)
English (Dolby AC3, 6 ch)
English (Dolby AC3, 6 ch)

VTS_02 :
Play Length: 01:49:52
Video: PAL 4:3 (720x576) VBR
Audio:
Russian (Dolby AC3, 6 ch)
Russian (Dolby AC3, 2 ch)
English (Dolby AC3, 2 ch)
Subtitles:
Russian
Общее
Полное имя : F:\Новинки 2011\Ya.soldat.2010.DVD9\VIDEO_TS\VTS_02_1.VOB
Формат : MPEG-PS
Размер файла : 1024 Мбайт
Продолжительность : 20 м.
Общий поток : 6918 Кбит/сек

Видео
Идентификатор : 224 (0xE0)
Формат : MPEG Video
Версия формата : Version 2
Профиль формата : Main@Main
Параметр BVOP формата : Да
Параметр матрицы формата : По умолчанию
Параметры GOP формата : M=3, N=12
Продолжительность : 20 м.
Вид битрейта : Переменный
Битрейт : 6013 Кбит/сек
Номинальный битрейт : 8000 Кбит/сек
Ширина : 720 пикс.
Высота : 576 пикс.
Соотношение сторон : 4:3
Частота кадров : 25,000 кадр/сек
Стандарт вещания : PAL
Цветовое пространство : YUV
Подвыборка цветности : 4:2:0
Битовая глубина : 8 бит
Тип развёртки : Чересстрочная
Порядок развёртки : Верхнее поле первое
Метод сжатия : С потерями
Бит/(Пиксели*Кадры) : 0.580
Размер потока : 890 Мбайт (87%)

Аудио #1
Идентификатор : 189 (0xBD)-128 (0x80)
Формат : AC-3
Формат/Информация : Audio Coding 3
Расширение режима : CM (complete main)
Режим смешивания : DVD-Video
Продолжительность : 20 м.
Вид битрейта : Постоянный
Битрейт : 384 Кбит/сек
Каналы : 6 каналов
Расположение каналов : Front: L C R, Side: L R, LFE
Частота : 48,0 КГц
Битовая глубина : 16 бит
Метод сжатия : С потерями
Размер потока : 56,8 Мбайт (6%)

Аудио #2
Идентификатор : 189 (0xBD)-129 (0x81)
Формат : AC-3
Формат/Информация : Audio Coding 3
Расширение режима : CM (complete main)
Режим смешивания : DVD-Video
Продолжительность : 20 м.
Вид битрейта : Постоянный
Битрейт : 192 Кбит/сек
Каналы : 2 канала
Расположение каналов : Front: L R
Частота : 48,0 КГц
Битовая глубина : 16 бит
Метод сжатия : С потерями
Размер потока : 28,4 Мбайт (3%)

Аудио #3
Идентификатор : 189 (0xBD)-130 (0x82)
Формат : AC-3
Формат/Информация : Audio Coding 3
Расширение режима : CM (complete main)
Режим смешивания : DVD-Video
Продолжительность : 20 м.
Вид битрейта : Постоянный
Битрейт : 192 Кбит/сек
Каналы : 2 канала
Расположение каналов : Front: L R
Частота : 48,0 КГц
Битовая глубина : 16 бит
Метод сжатия : С потерями
Размер потока : 28,4 Мбайт (3%)

Текст
Идентификатор : 189 (0xBD)-32 (0x20)
Формат : RLE
Формат/Информация : Run-length encoding
Режим смешивания : DVD-Video
Продолжительность : 20 м.
Задержка видео : 480 мс.










pb.wtf



Скачать Я солдат через торрент http://i1.imageban.ru/out/2011/07/11/e83f30ce9d2e17b69bf2a4c681099022.jpg Скачать фильм Я солдат через торрент бесплантно в хорошем качестве Описание: Бескомпромиссный рассказ об ужасах войны во Вьетнаме, которая стала одним из самых кровавых конфликтов второй половины XX века. ... 10 10 2
Info! Золотая раздача, скачанное не засчитывается.
Торрент: Зарегистрирован [2011-07-11 10:10] · скачан: 111 раз
Статус: √ проверено
Размер: 5.41 GB
Как cкачать? Как скачать Я солдат через торрент | UTorrent

28-11-2019 20:33  

Отключить всю рекламу на сайте

11-07-2011 21:03 Я солдат Скачать торрент  

полная чюшьpb.wtf



    Дорогой пользователь! Огромная просьба, поблагодарите релизера, оцените раздачу и оставьте свои комментарий, если Вы скачали Я солдат через торрент бесплатно! Внесите свою лепту в развитие PiratBit!
    Комментировать посты могут только пользователи прошедшие не сложную регистрацию
    Показать сообщения:    

    Я солдат через торрент
    Скачать бесплатно Я солдат
    Я солдат скачать торрент
    Я солдат смотреть онлайн
    Cкачать фильм Я солдат бесплатно
    Я солдат скачать торрент в хорошем качестве
    Я солдат смотреть онлайн бесплатно в хорошем качестве


    Вы не можете начинать темы
    Вы не можете отвечать на сообщения
    Вы не можете редактировать свои сообщения
    Вы не можете удалять свои сообщения
    Вы не можете голосовать в опросах
    Вы не можете прикреплять файлы к сообщениям
    Вы можете скачивать файлы