MEGA SALE -50% FORZA HORIZON 4 ULTIMATE+ВСЕ DLC+ОНЛАЙН всего за 599р. 299 руб. (супер цена). Внимание количество ограничено!!!

iTunes

1+1

iTunes

мы

iTunes

1

iTunes

Чернобыль

1 сезон

Ральф против интернета

Лицензия

ПШазам

Лицензия

Игра престолов

Лицензия

30
pack

ВАЖНО

!!Акция!!

Alien_RageХит недели

RePack

Resident Evil 21

ИГРА 18+

pack

RePack

Metro:Exodus

!!Акция!!

Alien_Rage

RePack

fifa19

RePack

Assassins Creed: Odyssey

RePack

NEED FOR SPEED™ PAYBACK

3 сезон

9 сезон

Бесстыжие 9 сезон

Все сериалы

все сериалы на PB.wtf

RePack

FAR CRY 5
Ребята, катастрофически не хватает 7730р. для оплаты серверов за ИЮЛЬ (всвязи с блокировками трафик упал в 3 раза), 1-2р., выручайте.
  

В её шкуре / In Her Skin (Симона Норт) [2009 г., триллер, драма,, HDRip] pb.wtf

В её шкуре через торрент pb.wtf

Размер: 1.37 GB | Добавлен: 8 лет 1 мес. назад | Торрент скачан:70 раз
Скачать  

12-07-2011 09:59 В её шкуре Скачать торрент  

В её шкуре / In Her Skin

Год выпуска: 2009
Страна: Австралия
Жанр: триллер, драма,
Продолжительность: 1ч 47мин
Перевод: Любительский (одноголосый)

Режиссер: Симона Норт
Продюссер: Тони Кавано, Морин Баррон, Ирен Добсон
Сценарий: Симона Норт

Премьера в мире: 14 марта 2009,

IMDB:6.50 (266)
http://www.kinopoisk.ru/level/1/film/315275/

В ролях: Гай Пирс. Сэм Нил. Миранда Отто. Ребекка Гибни. Джастин Кларк. Кейт Белл. Рут Брэдли. Кхан Читтенден. Дена Каплан. Джереми Симс.

Описание: 15-летнюю Рейчел - умницу, отличницу и гордость родителей, после урока в школе танца бойфренд сажает на трамвай, в конце пути которого её должен встретить отец, но на конечной остановке Рейчел в трамвае не оказывается...

Качество: HDRip
Формат: AVI
Видео кодек: XviD
Аудио кодек: MP3
Видео: 720x304 (2.37:1), 24.000 fps, XviD build 58 ~1617 kbps avg, 0.31 bit/pixel
Аудио: 48 kHz, MPEG Layer 3, 2 ch, ~192.00 kbps avg
Полное имя : D:\кино\in.her.skin.2009.HDRip.avi
Формат : AVI
Формат/Информация : Audio Video Interleave
Размер файла : 1,37 Гбайт
Продолжительность : 1 ч. 47 м.
Общий поток : 1819 Кбит/сек
Программа кодирования : VirtualDubMod 1.5.10.3 | www.virtualdub-fr.org || (build 2550/release)
Библиотека кодирования : VirtualDubMod build 2550/release

Видео
Идентификатор : 0
Формат : MPEG-4 Visual
Профиль формата : Advanced Simple@L5
Параметр BVOP формата : 1
Параметр QPel формата : Нет
Параметр GMC формата : Без точки перехода
Параметр матрицы формата : Default (MPEG)
Идентификатор кодека : XVID
Идентификатор кодека/Подсказка : XviD
Продолжительность : 1 ч. 47 м.
Битрейт : 1617 Кбит/сек
Ширина : 720 пикс.
Высота : 304 пикс.
Соотношение сторон : 2,35:1
Частота кадров : 24,000 кадр/сек
Цветовое пространство : YUV
Подвыборка цветности : 4:2:0
Битовая глубина : 8 бит
Тип развёртки : Прогрессивная
Метод сжатия : С потерями
Бит/(Пиксели*Кадры) : 0.308
Размер потока : 1,22 Гбайт (89%)
Библиотека кодирования : XviD 58

Аудио
Идентификатор : 1
Формат : MPEG Audio
Версия формата : Version 1
Профиль формата : Layer 3
Режим : Joint stereo
Идентификатор кодека : 55
Идентификатор кодека/Подсказка : MP3
Продолжительность : 1 ч. 47 м.
Вид битрейта : Постоянный
Битрейт : 192 Кбит/сек
Канал(ы) : 2 канала(ов)
Частота : 48,0 КГц
Метод сжатия : С потерями
Размер потока : 148 Мбайт (11%)
Выравнивание : Соединение по промежуткам
Продолжительность промежутка : 42 мс. (1,00 видеокадр)
Время предзагрузки промежутка : 504 ms




pb.wtf



Скачать В её шкуре через торрент http://i26.fastpic.ru/big/2011/0712/60/bf43d4cf208bf8c4ba7f2a1adcc2dc60.jpg Скачать фильм В её шкуре через торрент бесплантно в хорошем качестве Описание: 15-летнюю Рейчел - умницу, отличницу и гордость родителей, после урока в школе танца бойфренд сажает на трамвай, в конце пути ... 4.7 10 3
Info! Золотая раздача, скачанное не засчитывается.
Торрент: Зарегистрирован [2011-07-12 09:59] · скачан: 70 раз
Статус: √ проверено
Размер: 1.37 GB
Как cкачать? Как скачать В её шкуре через торрент | qTorrent



Последний раз редактировалось: MrKuzj (2011-08-17 18:30), всего редактировалось 3 раз(а)


>> Регистрируемся здесь <<






Отзывы и комментарии о схеме читаем и пишем здесь: ---> Отзывы и комментарии о схеме

Новые благодарочки в телеграм довольных пользователей:
скриншот   скриншот   скриншот   скриншот   скриншот

12-07-2011 11:05 В её шкуре Скачать торрент  

А фильмец похоже стоящий,братва становись на раздачу!!!pb.wtf



12-07-2011 20:45 В её шкуре Скачать торрент  

MrKuzj
Я Вам немного поправила, да и ссылка напосторонний сайт у нас запрещена.pb.wtf



    Дорогой пользователь! Огромная просьба, поблагодарите релизера, оцените раздачу и оставьте свои комментарий, если Вы скачали В её шкуре через торрент бесплатно! Внесите свою лепту в развитие PiratBit!
    Комментировать посты могут только пользователи прошедшие не сложную регистрацию
    Показать сообщения:    

    В её шкуре через торрент
    Скачать бесплатно В её шкуре
    В её шкуре скачать торрент
    В её шкуре смотреть онлайн
    Cкачать фильм В её шкуре бесплатно
    В её шкуре скачать торрент в хорошем качестве
    В её шкуре смотреть онлайн бесплатно в хорошем качестве


    Вы не можете начинать темы
    Вы не можете отвечать на сообщения
    Вы не можете редактировать свои сообщения
    Вы не можете удалять свои сообщения
    Вы не можете голосовать в опросах
    Вы не можете прикреплять файлы к сообщениям
    Вы можете скачивать файлы