новый адрес
Ссылка на приватное зеркало всего за 1$. Внимание количество ограничено!!!

iTunes

1+1

iTunes

мы

WEB-DL

1

iTunes

Чернобыль

iTunes

Ральф против интернета

Лицензия

ПШазам

Лицензия

Оно 2

Лицензия

30
pack

Вам бонус

ВАЖНО

!!Акция!!

Alien_RageХит недели

RePack

Resident Evil 21

ИГРА 18+

pack

RePack

jed

!!Акция!!

Alien_Rage

RePack

fifa19

RePack

Assassins Creed: Odyssey

RePack

NEED FOR SPEED™ PAYBACK

3 сезон

9 сезон

Бесстыжие 9 сезон

Все сериалы

все сериалы на PB.wtf

RePack

FAR CRY 5
Ребята, катастрофически не хватает 1900р. для оплаты серверов за Октябрь (всвязи с блокировками трафик упал в 3 раза), 1-2р., выручайте.
  

Сияние / The Shining (Стэнли Кубрик) [1980 г., Ужасы, Триллер., BDRip 1080р] pb.wtf

Сияние через торрент pb.wtf

Раздают: 1 [ 0 KB/s ]
Размер: 12.55 GB | Добавлен: 8 лет 4 мес. назад | Торрент скачан:443 раза
Скачать  

13-07-2011 19:31 Сияние Скачать торрент  

Сияние
The Shining




Год выпуска: 1980
Страна: США, Великобритания.
Жанр: Ужасы, Триллер.
Продолжительность: 02:23:46
Перевод: Русский професиональный многоголосый перевод + Английская дорожка

Режиссер: Стэнли Кубрик

В ролях: Джек Николсон /Jack Nicholson/, Шелли Дювалл /Shelley Duvall/, Дэнни Ллойд /Danny Lloyd/, Скэтмэн Крозерс /Scatman Crothers/, Энн Джексон /Anne Jackson/, Тони Бертон /Tony Burton/, Бэрри Нелсон /Barry Nelson/, Филип Стоун /Philip Stone/, Джо Теркел /Joe Turkel/.

Описание: Подумайте о самом страшном. Космические монстры-пришельцы? Смертельная эпидемия? Или, как вэтом душераздирающем фильме Стэнли Кубрика, страх погибнуть от руки того, кто должен любить и защищать тебя - от руки члена твоей семьи?
В сценарии по роману Стивена Кинга, Кубрик соединил прекрасную игру актеров, стильно подобранное место действия,мастерски снятые кадры и сложенную из шока конструкцию.
В главной роли - Джек Николсон. Его герой, Джек Торренс, приехал в элегантный уединенный отель, чтобы поработать смотрителем во время мертвого сезона вместе со своей женой (Шелли Дюваль) и сыном (Дэнни Ллойд). Торренс здесь раньше никогда не бывал. Или это не совсем так? Ответ лежит во мраке, сотканном из преступного кошмара.

Релиз:

Качество: BDRip 1080р
Формат: MKV
Видео кодек: AVC
Аудио кодек: AC3
Видео: AVC, 11.4 Mbps, 1920 x 1080 pixels, 23.976 fps, Bits/(Pixel*Frame) : 0.228
Audio #1 AC-3, 448 Kbps, 6 channels, 48.0 KHz : ru
Audio #2 AC-3, 448 Kbps, 6 channels, 48.0 KHz: en
Complete name Sijanije.1980.DUAL.BDRip.h264.1080p.AC3.-HQ-ViDEO\Sijanije.1980.DUAL.BDRip.h264.1080p.AC3.-HQ-ViDEO.mkv
Format : Matroska
File size : 12.6 GiB
Duration : 2h 23mn
Overall bit rate : 12.5 Mbps
Movie name : The Shining
Encoded date : UTC 2010-03-04 10:57:09
Writing application : mkvmerge v3.2.0 ('Beginnings') built on Feb 12 2010 16:46:17
Writing library : libebml v0.7.9 + libmatroska v0.8.1

Video
ID : 1
Format : AVC
Format/Info : Advanced Video Codec
Format profile : High@L4.1
Format settings, CABAC : Yes
Format settings, ReFrames : 4 frames
Format settings, GOP : M=1, N=50
Codec ID : V_MPEG4/ISO/AVC
Duration : 2h 23mn
Bit rate mode : Variable
Bit rate : 11.4 Mbps
Maximum bit rate : 11.6 Mbps
Width : 1 920 pixels
Height : 1 080 pixels
Display aspect ratio : 16:9
Frame rate : 23.976 fps
Color space : YUV
Chroma subsampling : 4:2:0
Bit depth : 8 bits
Scan type : Progressive
Bits/(Pixel*Frame) : 0.228
Stream size : 11.4 GiB (91%)
Title : GYN

Audio #1
ID : 2
Format : AC-3
Format/Info : Audio Coding 3
Mode extension : CM (complete main)
Codec ID : A_AC3
Duration : 2h 23mn
Bit rate mode : Constant
Bit rate : 448 Kbps
Channel(s) : 6 channels
Channel positions : Front: L C R, Side: L R, LFE
Sampling rate : 48.0 KHz
Bit depth : 16 bits
Compression mode : Lossy
Stream size : 461 MiB (4%)
Language : Russian

Audio #2
ID : 3
Format : AC-3
Format/Info : Audio Coding 3
Mode extension : CM (complete main)
Codec ID : A_AC3
Duration : 2h 23mn
Bit rate mode : Constant
Bit rate : 448 Kbps
Channel(s) : 6 channels
Channel positions : Front: L C R, Side: L R, LFE
Sampling rate : 48.0 KHz
Bit depth : 16 bits
Compression mode : Lossy
Stream size : 461 MiB (4%)
Language : English
pb.wtf



Скачать Сияние через торрент http://i2.imageban.ru/out/2011/07/12/db6abc88299b8ea5bb32bbbed41af2c5.png Скачать фильм Сияние через торрент бесплантно в хорошем качестве Описание: Подумайте о самом страшном. Космические монстры-пришельцы? Смертельная эпидемия? Или, как вэтом душераздирающем фильме Стэнли ... 8.4 10 5
Info! Золотая раздача, скачанное не засчитывается.
Торрент: Зарегистрирован [2011-07-13 19:31] · скачан: 443 раз
Статус: √ проверено
Размер: 12.55 GB
Как cкачать? Как скачать Сияние через торрент | qTorrent

% Раздел Тема Автор DL S | L
Ultra HD (UHD: 2K, 4K, 8K) — видео сверхвысокой чёткости [ 100.59 GB ] Сияние / The Shining [1980 UHD BDRemux 2160p] [Dolby Vision / HDR10 sheker187 Скачать
1 | 0
Фильмы без перевода [ 89.83 GB ] Сияние / The Shining [1980 UHD Blu-Ray EUR 2160p] [Dolby Vision] SUB [Rus] bober100 Скачать
1 | 1
Фильмы [HD 720p, 1080p] (Хороший звук DUB, MVO) [ 13.73 GB ] Сияние / The Shining [US Unrated cut] [1980 BDRip 720p] 2хMVO + 2хAVO + DVO + Sub + Original от R.G. PiratFilms Messa-fan Скачать
1 | 0
Арт-хаус и авторское кино [ 2.18 GB ] Сияние / The Shining [1980 BDRip + Оригинал] snouman82 Скачать
9 | 0

28-11-2019 20:33  

Отключить всю рекламу на сайте

    Дорогой пользователь! Огромная просьба, поблагодарите релизера, оцените раздачу и оставьте свои комментарий, если Вы скачали Сияние через торрент бесплатно! Внесите свою лепту в развитие PiratBit!
    Комментировать посты могут только пользователи прошедшие не сложную регистрацию
    Показать сообщения:    

    Сияние через торрент
    Скачать бесплатно Сияние
    Сияние скачать торрент
    Сияние смотреть онлайн
    Cкачать фильм Сияние бесплатно
    Сияние скачать торрент в хорошем качестве
    Сияние смотреть онлайн бесплатно в хорошем качестве


    Вы не можете начинать темы
    Вы не можете отвечать на сообщения
    Вы не можете редактировать свои сообщения
    Вы не можете удалять свои сообщения
    Вы не можете голосовать в опросах
    Вы не можете прикреплять файлы к сообщениям
    Вы можете скачивать файлы