1 сезон

3 сезон

iTunes

1

iTunes

MVO

iTunes

13

1 сезон

RePack

30

Deluxe

pack

Лицензия

ВАЖНО

ИГРА 18+

pack

RePack

MK11

RePack

jed

RePack

fifa19

RePack

RDR2

RePack

NEED FOR SPEED™ PAYBACK

4 сезон

9 сезон

Бесстыжие 9 сезон

Все сериалы

все сериалы на PB.wtf

RePack

FAR CRY 5

Anonymous, доброй ночи, мы катастрофически не успеваем собрать деньги на оплату серверов, помогите нам пожалуйста 5,10,15р., для нас важна любая помощь . В качестве благодарности мы отключим Вам всю рекламу на сайте (укажите свой ник в строку Ваше имя)!

×
  
Magnet ссылка

Запрещенный прием / Sucker Punch (Зак Снайдер / Zack Snyder) [2011, США, Канада, фэнтези, боевик, триллер, приключения, DVD9] R5 «CP-Digital» pb.wtf

Запрещенный прием через торрент pb.wtf

Размер: 5.49 GB | Добавлен: 10 лет назад | Торрент скачан:96 раз
Скачать  

13-07-2011 20:46 Запрещенный прием Скачать торрент  


Запрещенный прием / Sucker Punch
«К такому ты не готов!»
Страна: США, Канада
Студия: Cruel & Unusual Films, Legendary Pictures, Lennox House Films, Warner Bros. Pictures
Жанр: фэнтези, боевик, триллер, приключения
Год выпуска: 2011
Мировая премьера: 21 марта 2011
Российская премьера: 31 марта 2011, «Каро-Премьер»
Дата выхода DVD: 21 июля 2011, «CP-Digital»
Дата выхода Blu-Ray: 21 июля 2011, «CP-Digital»
Продолжительность: 01:45:16
Перевод: Профессиональный (дублированный) [Лицензия]
Cубтитры: русские, английские, арабские, эстонские, иврит, латышские, литовские, польские, португальские
Оригинальная аудиодорожка: английский
Режиссер: Зак Снайдер / Zack Snyder
В ролях: Эмили Браунинг, Эбби Корниш, Джена Мэлоун, Ванесса Энн Хадженс, Джеми Чунг, Карла Гуджино, Джон Хэмм, Оскар Айзек, Скотт Гленн, Вики Ламберт
Описание: Действие развернется в 1950 году. Молодую девушку по настоянию ее злодейского отчима определяют в больницу для душевнобольных, где спустя пять дней главную героиню лоботомируют. Чтобы оградиться от боли, она выдумывает сказочный мир, где и начинает планировать свой побег — для этого ей нужно раздобыть пять предметов.
Бонусы: нет

Релиз группы:
Качество: DVD9 R5
Формат: DVD-Video
Видео кодек: MPEG2
Аудио кодек: AC3
Видео: PAL 16:9 (720x576(0.486)) MPEG Video, 25,000 кадр/сек, 5036 Кбит/сек
Аудио #1: English (Dolby AC3, 6 ch) 384 Кбит/сек, 48,0 КГц
Аудио #2: Polish (Dolby AC3, 6 ch) 384 Кбит/сек, 48,0 КГц
Аудио #3: Russian (Dolby AC3, 6 ch) 384 Кбит/сек, 48,0 КГц
Аудио #4: Ukrainian (Dolby AC3, 6 ch) 384 Кбит/сек, 48,0 КГц



Title: F
Size: 5.49 Gb ( 5 756 442 KBytes ) - DVD-9
Enabled regions: 1, 2, 3, 4, 5, 6, 7, 8

VTS_01 :
Play Length: 01:45:16
Video: PAL 16:9 (720x576) VBR, Auto Pan&Scan
Audio:
English (Dolby AC3, 6 ch)
Polish (Dolby AC3, 6 ch)
Russian (Dolby AC3, 6 ch)
Ukrainian (Dolby AC3, 6 ch)
Subtitles:
English
Arabic
Estonian
Hebrew
Latvian
Lithuanian
Polish
Portugues
Russian
Russian

VTS_02 :
Play Length: 00:05:50
Video: PAL 16:9 (720x576) VBR, Auto Letterboxed
Audio:
Not specified (Dolby AC3, 2 ch)

VTS_03 :
Play Length: 00:00:01
Video: PAL 16:9 (720x576) VBR, Auto Letterboxed
Audio:
Not specified (Dolby AC3, 2 ch)

VTS_04 :
Play Length: 00:00:12
Video: PAL 16:9 (720x576) VBR, Auto Pan&Scan
Audio:
Not specified (Dolby AC3, 6 ch)

VTS_05 :
Play Length:
Video: PAL 16:9 (720x576) VBR, Auto Letterboxed

VTS_06 :
Play Length:
Video: PAL 4:3 (720x576) VBR

VTS_07 :
Play Length:
Video: PAL 16:9 (720x576) VBR, Auto Pan&Scan

VTS_08 :
Play Length:
Video: PAL 4:3 (720x576) VBR

VTS_09 :
Play Length: 00:10:54+00:02:33+00:02:49+00:02:48+00:02:44
Video: PAL 16:9 (720x576) VBR, Auto Pan&Scan
Audio:
English (Dolby AC3, 2 ch)
Subtitles:
English
Polish
Portugues
Russian

VTS_10 :
Play Length: 00:00:10
Video: PAL 16:9 (720x576) VBR, Auto Pan&Scan
Audio:
Not specified (Dolby AC3, 2 ch)
Общее
Полное имя : F:\Новинки 2011\Zaprewennyj.priem.2011.DVD9\VIDEO_TS\VTS_01_2.VOB
Формат : MPEG-PS
Размер файла : 1024 Мбайт
Продолжительность : 21 м.
Общий поток : 6706 Кбит/сек

Видео
Идентификатор : 224 (0xE0)
Формат : MPEG Video
Версия формата : Version 2
Профиль формата : Main@Main
Параметр BVOP формата : Да
Параметр матрицы формата : Выборочная
Продолжительность : 21 м.
Вид битрейта : Переменный
Битрейт : 5036 Кбит/сек
Номинальный битрейт : 9800 Кбит/сек
Ширина : 720 пикс.
Высота : 576 пикс.
Соотношение сторон : 16:9
Частота кадров : 25,000 кадр/сек
Стандарт вещания : PAL
Цветовое пространство : YUV
Подвыборка цветности : 4:2:0
Битовая глубина : 8 бит
Тип развёртки : Прогрессивная
Порядок развёртки : Верхнее поле первое
Метод сжатия : С потерями
Бит/(Пиксели*Кадры) : 0.486
Размер потока : 769 Мбайт (75%)

Аудио #1
Идентификатор : 189 (0xBD)-128 (0x80)
Формат : AC-3
Формат/Информация : Audio Coding 3
Расширение режима : CM (complete main)
Режим смешивания : DVD-Video
Продолжительность : 21 м.
Вид битрейта : Постоянный
Битрейт : 384 Кбит/сек
Каналы : 6 каналов
Расположение каналов : Front: L C R, Side: L R, LFE
Частота : 48,0 КГц
Битовая глубина : 16 бит
Метод сжатия : С потерями
Задержка видео : -288 мс.
Размер потока : 58,6 Мбайт (6%)

Аудио #2
Идентификатор : 189 (0xBD)-129 (0x81)
Формат : AC-3
Формат/Информация : Audio Coding 3
Расширение режима : CM (complete main)
Режим смешивания : DVD-Video
Продолжительность : 21 м.
Вид битрейта : Постоянный
Битрейт : 384 Кбит/сек
Каналы : 6 каналов
Расположение каналов : Front: L C R, Side: L R, LFE
Частота : 48,0 КГц
Битовая глубина : 16 бит
Метод сжатия : С потерями
Задержка видео : -288 мс.
Размер потока : 58,6 Мбайт (6%)

Аудио #3
Идентификатор : 189 (0xBD)-130 (0x82)
Формат : AC-3
Формат/Информация : Audio Coding 3
Расширение режима : CM (complete main)
Режим смешивания : DVD-Video
Продолжительность : 21 м.
Вид битрейта : Постоянный
Битрейт : 384 Кбит/сек
Каналы : 6 каналов
Расположение каналов : Front: L C R, Side: L R, LFE
Частота : 48,0 КГц
Битовая глубина : 16 бит
Метод сжатия : С потерями
Задержка видео : -288 мс.
Размер потока : 58,6 Мбайт (6%)

Аудио #4
Идентификатор : 189 (0xBD)-131 (0x83)
Формат : AC-3
Формат/Информация : Audio Coding 3
Расширение режима : CM (complete main)
Режим смешивания : DVD-Video
Продолжительность : 21 м.
Вид битрейта : Постоянный
Битрейт : 384 Кбит/сек
Каналы : 6 каналов
Расположение каналов : Front: L C R, Side: L R, LFE
Частота : 48,0 КГц
Битовая глубина : 16 бит
Метод сжатия : С потерями
Задержка видео : -288 мс.
Размер потока : 58,6 Мбайт (6%)










pb.wtf



Скачать Запрещенный прием через торрент http://i2.imageban.ru/out/2011/07/13/1697eb14b4628156d7d1d605cfce2720.jpg Скачать фильм Запрещенный прием через торрент бесплантно в хорошем качестве Описание: Действие развернется в 1950 году. Молодую девушку по настоянию ее злодейского отчима определяют в больницу для душевнобольных, ... 10 10 1
Info! Золотая раздача, скачанное не засчитывается.
Торрент: Зарегистрирован [2011-07-13 20:46] · скачан: 96 раз
Статус: √ проверено
Размер: 5.49 GB
Как cкачать? Как скачать Запрещенный прием через торрент | UTorrent

28-11-2019 20:33  

Отключить всю рекламу на сайте

13-07-2011 20:56 Запрещенный прием Скачать торрент  

Крутой фильмак) Спасибоpb.wtf



13-07-2011 21:51 Запрещенный прием Скачать торрент  

Как говорили пионеры - Всегда готов!pb.wtf



14-07-2011 06:57 Запрещенный прием Скачать торрент  

Фильм шлак, не понравился, может и задумка и нова - но такое ощущение что очень хотелось бабла - а делать ничего дельного не хотелосьpb.wtf



    Дорогой пользователь! Огромная просьба, поблагодарите релизера, оцените раздачу и оставьте свои комментарий, если Вы скачали Запрещенный прием через торрент бесплатно! Внесите свою лепту в развитие PiratBit!
    Комментировать посты могут только пользователи прошедшие не сложную регистрацию
    Показать сообщения:    

    Запрещенный прием через торрент
    Скачать бесплатно Запрещенный прием
    Запрещенный прием скачать торрент
    Запрещенный прием смотреть онлайн
    Cкачать фильм Запрещенный прием бесплатно
    Запрещенный прием скачать торрент в хорошем качестве
    Запрещенный прием смотреть онлайн бесплатно в хорошем качестве


    Вы не можете начинать темы
    Вы не можете отвечать на сообщения
    Вы не можете редактировать свои сообщения
    Вы не можете удалять свои сообщения
    Вы не можете голосовать в опросах
    Вы не можете прикреплять файлы к сообщениям
    Вы можете скачивать файлы