2 сезон

iTunes

1 сезон

1

iTunes

iTunes

iTunes

1 сезон

RePack

30

ИГРА 18+

pack

ВАЖНО

!!Акция!!

Alien_RageХит недели

RePack

MK11
pack

Забери бонус

RePack

jed

!!Акция!!

Alien_Rage

RePack

fifa19

RePack

Assassins Creed: Odyssey

RePack

NEED FOR SPEED™ PAYBACK

4 сезон

9 сезон

Бесстыжие 9 сезон

Все сериалы

все сериалы на PB.wtf

RePack

FAR CRY 5
  

Охотники на троллей / The Troll Hunter / Trolljegeren (Андре Овердаль) [2010 г., ужасы, боевик, приключения, BDRip 1080р] pb.wtf

Охотники на троллей через торрент pb.wtf

Размер: 8.26 GB | Добавлен: 9 лет 3 мес. назад | Торрент скачан:54 раза
Скачать  

17-07-2011 12:00 Охотники на троллей Скачать торрент  

Охотники на троллей
The Troll Hunter / Trolljegeren




Год выпуска: 2010
Страна: Норвегия
Жанр: ужасы, боевик, приключения
Продолжительность: 01:39:04
Перевод: Любительский (одноголосый закадровый) zamez

Режиссер: Андре Овердаль

В ролях: Отто Есперсен, Ганс Мортен Хансен, Томас Альф Ларсен, Джоанна Морк, Роберт Столтенберг, Гленн Эрланд Тостеруд

Описание: Группа студентов узнаёт, что правительство скрывает от широких масс информацию о существовании троллей на севере Норвегии. Отважные ребята и девушки самостоятельно с помощью подручных средств уничтожают великанов, представляющих огромную опасность

Качество: BDRip 1080р
Формат: MKV
Видео кодек: AVC
Аудио кодек: AC3
Видео: AVC, 1920x1080 (16/9), 25.000 fps, 9 974 Kbps (0.188 bit/pixel)
Аудио #1: AC-3, 48.0 KHz, 6 ch, 448 Kbps, CBR (Russian)
Аудио #2: DTS, 48.0 KHz, 6 ch, 1 510 Kbps, CBR (Norwegian Bokmal)
Субтитры: Russian, Russian, Danish, Finnish, Norwegian Bokmal, Swedish
Complete name Trolljegeren.2010.mkv
Format : Matroska
File size : 8.26 GiB
Duration : 1h 39mn
Overall bit rate : 11.9 Mbps
Encoded date : UTC 2011-07-14 15:53:18
Writing application : mkvmerge v4.6.0 ('Still Crazy After All These Years') сборка от Mar 10 2011 02:50:32
Writing library : libebml v1.2.0 + libmatroska v1.1.0

Video
ID : 1
Format : AVC
Format/Info : Advanced Video Codec
Format profile : High@L4.1
Format settings, CABAC : Yes
Format settings, ReFrames : 4 frames
Codec ID : V_MPEG4/ISO/AVC
Duration : 1h 39mn
Bit rate : 9 974 Kbps
Width : 1 920 pixels
Height : 1 080 pixels
Display aspect ratio : 16:9
Frame rate : 25.000 fps
Color space : YUV
Chroma subsampling : 4:2:0
Bit depth : 8 bits
Scan type : Progressive
Bits/(Pixel*Frame) : 0.192
Stream size : 6.74 GiB (82%)
Writing library : x264 core 113 r1884 7313bb5
Encoding settings : cabac=1 / ref=4 / deblock=1:0:0 / analyse=0x3:0x133 / me=umh / subme=7 / psy=1 / psy_rd=1.00:0.00 / mixed_ref=1 / me_range=16 / chroma_me=1 / trellis=1 / 8x8dct=1 / cqm=0 / deadzone=21,11 / fast_pskip=0 / chroma_qp_offset=-2 / threads=9 / sliced_threads=0 / nr=0 / decimate=1 / interlaced=0 / constrained_intra=0 / bframes=3 / b_pyramid=2 / b_adapt=2 / b_bias=0 / direct=3 / weightb=1 / open_gop=0 / weightp=2 / keyint=250 / keyint_min=25 / scenecut=40 / intra_refresh=0 / rc_lookahead=50 / rc=2pass / mbtree=1 / bitrate=9974 / ratetol=1.0 / qcomp=0.60 / qpmin=0 / qpmax=69 / qpstep=4 / cplxblur=20.0 / qblur=0.5 / ip_ratio=1.40 / aq=1:1.00
Language : Norwegian

Audio #1
ID : 2
Format : AC-3
Format/Info : Audio Coding 3
Mode extension : CM (complete main)
Codec ID : A_AC3
Duration : 1h 39mn
Bit rate mode : Constant
Bit rate : 448 Kbps
Channel(s) : 6 channels
Channel positions : Front: L C R, Side: L R, LFE
Sampling rate : 48.0 KHz
Bit depth : 16 bits
Compression mode : Lossy
Stream size : 317 MiB (4%)
Title : Zamez
Language : Russian

Audio #2
ID : 3
Format : DTS
Format/Info : Digital Theater Systems
Codec ID : A_DTS
Duration : 1h 39mn
Bit rate mode : Constant
Bit rate : 1 510 Kbps
Channel(s) : 6 channels
Channel positions : Front: L C R, Side: L R, LFE
Sampling rate : 48.0 KHz
Bit depth : 24 bits
Compression mode : Lossy
Delay relative to video : 22ms
Stream size : 1.04 GiB (13%)
Title : Nor
Language : Norwegian

Text #1
ID : 4
Format : UTF-8
Codec ID : S_TEXT/UTF8
Codec ID/Info : UTF-8 Plain Text
Title : Russianguy27
Language : Russian

Text #2
ID : 5
Format : UTF-8
Codec ID : S_TEXT/UTF8
Codec ID/Info : UTF-8 Plain Text
Title : Eric Draven
Language : Russian

Text #3
ID : 6
Format : UTF-8
Codec ID : S_TEXT/UTF8
Codec ID/Info : UTF-8 Plain Text
Title : Dan
Language : Danish

Text #4
ID : 7
Format : UTF-8
Codec ID : S_TEXT/UTF8
Codec ID/Info : UTF-8 Plain Text
Title : Fin
Language : Finnish

Text #5
ID : 8
Format : UTF-8
Codec ID : S_TEXT/UTF8
Codec ID/Info : UTF-8 Plain Text
Title : Nor
Language : Norwegian

Text #6
ID : 9
Format : UTF-8
Codec ID : S_TEXT/UTF8
Codec ID/Info : UTF-8 Plain Text
Title : Swe
Language : Swedish
pb.wtf



Скачать Охотники на троллей через торрент http://i3.imageban.ru/out/2011/07/17/1a8005a54df1aad193b971a97b8b44b7.png Скачать фильм Охотники на троллей через торрент бесплантно в хорошем качестве Описание: Группа студентов узнаёт, что правительство скрывает от широких масс информацию о существовании троллей на севере Норвегии. ... 4.9 10 9
Info! Золотая раздача, скачанное не засчитывается.
Торрент: Зарегистрирован [2011-07-17 12:00] · скачан: 54 раз
Статус: √ проверено
Размер: 8.26 GB
Как cкачать? Как скачать Охотники на троллей через торрент | qTorrent



Последний раз редактировалось: smaster (2011-07-17 14:21), всего редактировалось 1 раз

28-11-2019 20:33  

Отключить всю рекламу на сайте

17-07-2011 13:14 Охотники на троллей Скачать торрент  

супер трешь))pb.wtf



17-07-2011 22:14 Охотники на троллей Скачать торрент  

я думал что на Украине самый хреновый кинематограф. но парни из Норвегии вообще жгут. pb.wtf



    Дорогой пользователь! Огромная просьба, поблагодарите релизера, оцените раздачу и оставьте свои комментарий, если Вы скачали Охотники на троллей через торрент бесплатно! Внесите свою лепту в развитие PiratBit!
    Комментировать посты могут только пользователи прошедшие не сложную регистрацию
    Показать сообщения:    

    Охотники на троллей через торрент
    Скачать бесплатно Охотники на троллей
    Охотники на троллей скачать торрент
    Охотники на троллей смотреть онлайн
    Cкачать фильм Охотники на троллей бесплатно
    Охотники на троллей скачать торрент в хорошем качестве
    Охотники на троллей смотреть онлайн бесплатно в хорошем качестве


    Вы не можете начинать темы
    Вы не можете отвечать на сообщения
    Вы не можете редактировать свои сообщения
    Вы не можете удалять свои сообщения
    Вы не можете голосовать в опросах
    Вы не можете прикреплять файлы к сообщениям
    Вы можете скачивать файлы