2 сезон

iTunes

MVO

1

2 сезон

iTunes

iTunes

1 сезон

RePack

30

Ultimate

ВАЖНО

ИГРА 18+

pack

RePack

MK11
pack

Легкие деньги

RePack

jed

RePack

fifa19

RePack

RDR2

RePack

NEED FOR SPEED™ PAYBACK

4 сезон

9 сезон

Бесстыжие 9 сезон

Все сериалы

все сериалы на PB.wtf

RePack

FAR CRY 5

Anonymous, доброй ночи, мы не успеваем собрать деньги на оплату серверов за декабрь и январь, помогите нам пожалуйста в это трудное время. В качестве благодарности мы отключим Вам всю рекламу на сайте (укажите свой ник в строку Ваше имя)!

×
  
Magnet ссылка

Моя последняя первая любовь (Андрей Щербинин) [2011 г., мелодрама, криминал, DVB] pb.wtf

Моя последняя первая любовь через торрент pb.wtf

Размер: 2.66 GB | Добавлен: 9 лет 5 мес. назад | Торрент скачан:279 раз
Скачать  

17-07-2011 17:59 Моя последняя первая любовь Скачать торрент  

Моя последняя первая любовь

Год выпуска: 2011
Страна: Россия
Жанр: мелодрама, криминал
Продолжительность: 01:25:42
Перевод: оригинал

Режиссер: Андрей Щербинин

Премьера в мире: 17 июля 2011

В ролях: Игорь Бочкин, Данила Дунаев, Мария Валешная, Игорь Лепихин

Описание: Артуру Бутузову тридцать пять. Он отличный специалист в области имиджа и пиара. Не дурен собой, умен, прекрасно образован и обладает чувством юмора. А ещё Артур тяжело и неизлечимо болен. Однажды лечащий врач говорит Артуру, что ему осталось жить несколько месяцев. И вот, лёжа в больничной палате, он прокручивает мысленно всю свою жизнь и понимает, что прожил ее бездарно – в суете, дрязгах, интригах, погоне за мистической славой и беге за карьерным ростом. И по-настоящему не прожил ни одного дня! Что же такое жизнь? Задается Артур вопросом и тут же находит ответ. Жизнь это любовь. И … понимает, что всегда тайно был влюблен в прекрасную телеведущую новостей, точнее ту, которая вещает нам на всю страну прогноз погоды на завтрашний день. Но она для Артура, как и для всех нас мужчин – миф, недостижимая сказка. Может, и нет ее вовсе, а просто отлично сделанная компьютерная графика. Но это не так. Она есть, и она где-то живет, ездит на работу, простаивает в душных пробках, раз в месяц платит очередной кредит по ипотеке, может быть, у нее даже есть ребенок и она разведена.
За ответами на все эти вопросы и отправляется Артур в Москву. В общем, если любить так Королеву, но… нет миллиона, который должен быть приложением к Королеве.
Артуру нечего терять. Он понимает, что всю жизнь боялся жить. Боялся закона, боялся общественного мнения и порицания. Он разрабатывает хитроумный, и в то же самое время простой как все гениальное план банковской аферы. И всё у него складывается хорошо, но банк нанимает частного детектива, который должен найти и вернуть украденный миллион, а афериста жестко наказать.

Качество: DVB
Формат: MPEG
Видео кодек: MPEG2
Аудио кодек: MPEG Audio
Видео: MPEG2 Video 720x576 (4:3) 25.00fps 4 157 Kbps, 0.401 bit/pixel
Аудио: MPEG Audio 48000Hz 2 channels 192 Кбит/сек

Код:

General
Complete name                    : D:\Мои документы\Фильмы\Моя последняя первая любовь_DVB
Format                           : MPEG-PS
File size                        : 2.66 GiB
Duration                         : 1h 25mn
Overall bit rate                 : 4 437 Kbps

Video
ID                               : 224 (0xE0)
Format                           : MPEG Video
Format version                   : Version 2
Format profile                   : Main@Main
Format settings, BVOP            : Yes
Format settings, Matrix          : Custom
Format settings, GOP             : M=1, N=31
Duration                         : 1h 25mn
Bit rate mode                    : Variable
Bit rate                         : 4 157 Kbps
Nominal bit rate                 : 15.0 Mbps
Width                            : 720 pixels
Height                           : 576 pixels
Display aspect ratio             : 4:3
Frame rate                       : 25.000 fps
Standard                         : PAL
Color space                      : YUV
Chroma subsampling               : 4:2:0
Bit depth                        : 8 bits
Scan type                        : Interlaced
Scan order                       : Top Field First
Compression mode                 : Lossy
Bits/(Pixel*Frame)               : 0.401
Stream size                      : 2.49 GiB (94%)

Audio
ID                               : 192 (0xC0)
Format                           : MPEG Audio
Format version                   : Version 1
Format profile                   : Layer 2
Duration                         : 1h 25mn
Bit rate mode                    : Constant
Bit rate                         : 192 Kbps
Channel(s)                       : 2 channels
Sampling rate                    : 48.0 KHz
Compression mode                 : Lossy
Stream size                      : 118 MiB (4%)

pb.wtf



Скачать Моя последняя первая любовь через торрент http://i26.fastpic.ru/big/2011/0711/91/7fe0e7c98295c6335d6191d9cc465d91.jpg Скачать фильм Моя последняя первая любовь через торрент бесплантно в хорошем качестве Описание: Артуру Бутузову тридцать пять. Он отличный специалист в области имиджа и пиара. Не дурен собой, умен, прекрасно образован и ... 4.8 10 11
Info! Золотая раздача, скачанное не засчитывается.
Торрент: Зарегистрирован [2011-07-17 17:59] · скачан: 279 раз
Статус: √ проверено
Размер: 2.66 GB
Как cкачать? Как скачать Моя последняя первая любовь через торрент | UTorrent

% Раздел Тема Автор DL S | L
Наши фильмы 2010-2011 [ 1.22 GB ] Моя последняя первая любовь [2011 SATRip] coc900 Скачать
1 | 0

28-11-2019 20:33  

Отключить всю рекламу на сайте

25-07-2011 22:27 Моя последняя первая любовь Скачать торрент  

хорошо!!!pb.wtf



    Дорогой пользователь! Огромная просьба, поблагодарите релизера, оцените раздачу и оставьте свои комментарий, если Вы скачали Моя последняя первая любовь через торрент бесплатно! Внесите свою лепту в развитие PiratBit!
    Комментировать посты могут только пользователи прошедшие не сложную регистрацию
    Показать сообщения:    

    Моя последняя первая любовь через торрент
    Скачать бесплатно Моя последняя первая любовь
    Моя последняя первая любовь скачать торрент
    Моя последняя первая любовь смотреть онлайн
    Cкачать фильм Моя последняя первая любовь бесплатно
    Моя последняя первая любовь скачать торрент в хорошем качестве
    Моя последняя первая любовь смотреть онлайн бесплатно в хорошем качестве


    Вы не можете начинать темы
    Вы не можете отвечать на сообщения
    Вы не можете редактировать свои сообщения
    Вы не можете удалять свои сообщения
    Вы не можете голосовать в опросах
    Вы не можете прикреплять файлы к сообщениям
    Вы можете скачивать файлы