Ссылка на приватное зеркало нашего сайта всего за 1$. Внимание количество ограничено!!!

2 сезон

iTunes

1 сезон

1

iTunes

iTunes

iTunes

1 сезон

RePack

30

ИГРА 18+

pack

ВАЖНО

!!Акция!!

Alien_RageХит недели

RePack

MK11
pack

Забери бонус

RePack

jed

!!Акция!!

Alien_Rage

RePack

fifa19

RePack

Assassins Creed: Odyssey

RePack

NEED FOR SPEED™ PAYBACK

4 сезон

9 сезон

Бесстыжие 9 сезон

Все сериалы

все сериалы на PB.wtf

RePack

FAR CRY 5
  

«V» значит Вендетта / V for Vendetta (Джеймс МакТиг) [2006 г., фантастика, боевик, триллер, BDRip 1080p] pb.wtf

«V» значит Вендетта через торрент pb.wtf

Качают: 1 [ 0 KB/s ]
Размер: 12.19 GB | Добавлен: 9 лет 3 мес. назад | Торрент скачан:371 раз
Скачать  

17-07-2011 19:22 «V» значит Вендетта Скачать торрент  

«V» значит Вендетта
V for Vendetta




Год выпуска: 2006
Страна: США, Германия, Великобритания
Жанр: фантастика, боевик, триллер
Продолжительность: 02:12:32
Перевод: Профессиональный (полное дублирование)

Режиссер: Джеймс МакТиг

В ролях: Натали Портман, Хьюго Уивинг, Стивен Ри, Стивен Фрай, Джон Хёрт, Тим Пиготт-Смит, Руперт Грейвз, Роджер Аллам, Бен Майлз, Шинейд Кьюсак

Описание: Альтернативное будущее. В Британии установилась фашистская диктатура, инакомыслие и ислам объявлены вне закона. На ее территории живет и действует «В» - террорист и борец за свободу, носящий фарфоровую маску, скрывающую его личность. Он ведет жестокую партизанскую войну с режимом. В этой войне он привлекает на свою сторону Иви Хаммонд - молодую женщину, которую вырвал из лап тайной полиции.



Качество: BDRip 1080p
Формат: MKV
Видео кодек: VC-1
Аудио кодек: AC3
Видео: VC-1, Microsoft, 1920x1080 (16/9), 24.000 fps, 12.3 Mbps (0.246 bit/pixel)
Аудио: AC-3, 48.0 KHz, 6 ch, 640 Kbps, CBR
Complete name «V» значит Вендетта-2005.mkv
Format : Matroska
File size : 12.2 GiB
Duration : 2h 12mn
Overall bit rate : 13.2 Mbps
Encoded date : UTC 2011-05-26 16:06:59
Writing application : mkvmerge v4.3.0 ('Escape from the Island') сборка от Sep 5 2010 10:30:51
Writing library : libebml v1.0.0 + libmatroska v1.0.0

Video
ID : 1
Format : VC-1
Format profile : AP@L3
Codec ID : WVC1
Codec ID/Hint : Microsoft
Duration : 2h 12mn
Bit rate : 12.3 Mbps
Width : 1 920 pixels
Height : 1 080 pixels
Display aspect ratio : 16:9
Frame rate : 24.000 fps
Original frame rate : 23.976 fps
Chroma subsampling : 4:2:0
Bit depth : 8 bits
Scan type : Progressive
Compression mode : Lossy
Bits/(Pixel*Frame) : 0.246
Stream size : 11.4 GiB (93%)

Audio
ID : 2
Format : AC-3
Format/Info : Audio Coding 3
Mode extension : CM (complete main)
Muxing mode : Header stripping
Codec ID : A_AC3
Duration : 2h 12mn
Bit rate mode : Constant
Bit rate : 640 Kbps
Channel(s) : 6 channels
Channel positions : Front: L C R, Side: L R, LFE
Sampling rate : 48.0 KHz
Bit depth : 16 bits
Compression mode : Lossy
Stream size : 607 MiB (5%)
pb.wtf



Скачать «V» значит Вендетта через торрент http://i2.imageban.ru/out/2011/07/17/f10e3e6389ad8f84555fa95b9dcb8db5.png Скачать фильм «V» значит Вендетта через торрент бесплантно в хорошем качестве Описание: Альтернативное будущее. В Британии установилась фашистская диктатура, инакомыслие и ислам объявлены вне закона. На ее территории ... 10 10 5
Info! Золотая раздача, скачанное не засчитывается.
Торрент: Зарегистрирован [2011-07-17 19:22] · скачан: 371 раз
Статус: √ проверено
Размер: 12.19 GB
Как cкачать? Как скачать «V» значит Вендетта через торрент | qTorrent

% Раздел Тема Автор DL S | L
Фильмы [HD 720p, 1080p] (Хороший звук DUB, MVO) [ 7.75 GB ] «V» значит Вендетта / V for Vendetta [2005 антиутопия BDRip 720p от _denis_100 / NNNB] DUB + DVO + 2xAVO _denis_100 Скачать
1 | 0
Фильмы с авторской озвучкой [ 2.24 GB ] «V» значит Вендетта / V for Vendetta [2005 BDRip] [AVO] killermax2013 Скачать
1 | 0
Фильмы 2001-2005 [ 2.54 GB ] «V» значит Вендетта / V for Vendetta [2005 BDRip] -=BIGBOSS=- Скачать
2 | 0
Фильмы 2001-2005 [ 3.14 GB ] «V» значит Вендетта / V for Vendetta [2005 BDRip-AVC DUB] Mr. Freeman Скачать
1 | 0
Фильмы [HD 720p, 1080p] (Хороший звук DUB, MVO) [ 4.37 GB ] «V» значит Вендетта / V for Vendetta [2005 BDRip 720p / DVD5 ] diletant Скачать
1 | 0
Фильмы 2001-2005 [ 1.97 GB ] «V» значит Вендетта / V for Vendetta [2005 DVDRip] nitles666 Скачать
1 | 1

28-11-2019 20:33  

Отключить всю рекламу на сайте

17-07-2011 19:37 «V» значит Вендетта Скачать торрент  

Классный фильм)Автору зачёт pb.wtf



17-07-2011 20:32 «V» значит Вендетта Скачать торрент  

советую.pb.wtf



23-07-2011 18:48 «V» значит Вендетта Скачать торрент  

Побольше бы таких фильмов!!!pb.wtf



05-11-2011 05:08 «V» значит Вендетта Скачать торрент  

Дайте скорости плиз :)pb.wtf



29-11-2012 14:00 «V» значит Вендетта Скачать торрент  

Скорости плиз!!!pb.wtf



19-12-2012 15:17 «V» значит Вендетта Скачать торрент  

Мне ток маска понравилась=)pb.wtf



29-07-2015 05:58 «V» значит Вендетта Скачать торрент  

Дайте раздачи пожалуйстаа ))pb.wtf



    Дорогой пользователь! Огромная просьба, поблагодарите релизера, оцените раздачу и оставьте свои комментарий, если Вы скачали «V» значит Вендетта через торрент бесплатно! Внесите свою лепту в развитие PiratBit!
    Комментировать посты могут только пользователи прошедшие не сложную регистрацию
    Показать сообщения:    

    «V» значит Вендетта через торрент
    Скачать бесплатно «V» значит Вендетта
    «V» значит Вендетта скачать торрент
    «V» значит Вендетта смотреть онлайн
    Cкачать фильм «V» значит Вендетта бесплатно
    «V» значит Вендетта скачать торрент в хорошем качестве
    «V» значит Вендетта смотреть онлайн бесплатно в хорошем качестве


    Вы не можете начинать темы
    Вы не можете отвечать на сообщения
    Вы не можете редактировать свои сообщения
    Вы не можете удалять свои сообщения
    Вы не можете голосовать в опросах
    Вы не можете прикреплять файлы к сообщениям
    Вы можете скачивать файлы