Достать ножи: Стеклянная луковица

MVO

Добыча

Дубляж

Уэнсдэй

1 сезон

Тор

Дубляж

13 клиническая

1 сезон

Жестокая ночь

MVO

Одни из нас

1 сезон

Deluxe

pack

Рекомендуем

30

Пиратка

ВАЖНО

ВАЖНО

Ghostwire

Пиратка

jed

RePack

nioh2

RePack

RDR2

RePack

NEED FOR SPEED™ PAYBACK

RePack

скачать торрент

Кинопоиск HD

Острые козырьки 6 сезон

6 сезон

FAR CRY 6

RePack

скачать торрент

Лицензия

скачать торрент

MVO

1

1 сезон

скачать торрент

1 сезон

скачать торрент

Лицензия

  

Инкассатор / Armored (Нимрод Антал) [2009 г., боевик, триллер, драма, BDRip 1080р]

Инкассатор через торрент pb.wtf

Размер: 8.35 GB | Добавлен: 11 лет назад | Торрент скачан:55 раз
Смотреть онлайн | Скачать | Поддержите нас   

19-07-2011 18:09 Инкассатор Скачать торрент  

Инкассатор
Armored




Год выпуска: 2009
Страна: США
Жанр: боевик, триллер, драма
Продолжительность: 01:27:53
Перевод: Профессиональный (многоголосый, закадровый)- R5

Режиссер: Нимрод Антал

В ролях: Мэтт Диллон, Жан Рено, Лоренс Фишбёрн, Амори Ноласко, Фред Уорд, Майло Вентимилья, Скит Ульрих, Коламбус Шорт, Андре Кинни, Эндрю Фисцелла

Описание: Ветеран боевых действий Тай Хэккет возвращается домой после службы в Ираке. В поисках средств к существованию и желания должной заботы о своём младшем брате, Тай вынужден перебиваться с работы на работу.

Однажды он поступает на инкассаторскую службу, где от старого друга семьи Майка получает, казалось бы, выгодное предложение, — обокрасть свой же эскорт с деньгами, когда будет перевозиться особо крупная сумма денег. Колеблясь, и не зная, как вести себя в этой ситуации, Хэккет всё же солашается на операцию, после того, как органы опеки делают попытки забрать его брата в приют под предлогом «лучшей заботы о мальчике».

Всё же согласившись на преступление, честный и справедливый солдат идёт на компромисс — никаких жертв, никаких трупов. Когда же всё пошло не так, Тай Хэккет встаёт по ту сторону «своих», любой ценой предотвращая идеально спланированную кражу денег и исключая появление всё новых жертв. Один против нескольких, — сможет ли он победить? Борьба не на жизнь, а на смерть начинается…

Качество: BDRip 1080р
Формат: MKV
Видео кодек: AVC
Аудио кодек: AC3
Видео: AVC, 1920x800 (2.400), 23.976 fps, 11.5 Mbps (0.304 bit/pixel)
Аудио #1: AC-3, 48.0 KHz, 6 ch, 640 Kbps, CBR (Russian)
Аудио #2: DTS, 48.0 KHz, 6 ch, 1 510 Kbps, CBR
Субтитры: English, Russian
Complete name Armored.2009.1080p.BluRay.x264.DTS-WiKi.mkv
Format : Matroska
File size : 8.35 GiB
Duration : 1h 27mn
Overall bit rate : 13.6 Mbps
Encoded date : UTC 2010-03-23 09:59:20
Writing application : mkvmerge v2.4.0 ('Fumbling Towards Ecstasy') built on Oct 11 2008 20:13:15
Writing library : libebml v0.7.7 + libmatroska v0.8.1

Video
ID : 4
Format : AVC
Format/Info : Advanced Video Codec
Format profile : [email protected]
Format settings, CABAC : Yes
Format settings, ReFrames : 5 frames
Codec ID : V_MPEG4/ISO/AVC
Duration : 1h 27mn
Bit rate : 11.5 Mbps
Width : 1 920 pixels
Height : 800 pixels
Display aspect ratio : 2.40:1
Frame rate : 23.976 fps
Color space : YUV
Chroma subsampling : 4:2:0
Bit depth : 8 bits
Scan type : Progressive
Bits/(Pixel*Frame) : 0.311
Stream size : 6.87 GiB (82%)
Writing library : x264 core 68 r1183M f21daff
Encoding settings : cabac=1 / ref=5 / deblock=1:-3:-3 / analyse=0x3:0x133 / me=umh / subme=1 / psy_rd=1.0:0.1 / mixed_ref=1 / me_range=326chroma_me=1 / trellis=2 / 8x8dct=1 / cqm=0 / deadzone=21,11 / chroma_qp_offset=-3 / threads=24 / nr=0 / decimate=1 / mbaff=0 / bframes=5 / b_pyramid=1 / b_adapt=2 / b_bias=0 / direct=3 / wpredb=1 / keyint=250 / keyint_min=25 / scenecut=40 / rc=2pass / bitrate=11455 / ratetol=1.0 / qcomp=0.60 / qpmin=10 / qpmax=51 / qpstep=4 / cplxblur=20.0 / qblur=0.5 / vbv_maxrate=50000 / vbv_bufsize=50000 / ip_ratio=1.40 / pb_ratio=1.30 / aq=1:0.80
Language : English

Audio #1
ID : 3
Format : AC-3
Format/Info : Audio Coding 3
Mode extension : CM (complete main)
Codec ID : A_AC3
Duration : 1h 27mn
Bit rate mode : Constant
Bit rate : 640 Kbps
Channel(s) : 6 channels
Channel positions : Front: L C R, Side: L R, LFE
Sampling rate : 48.0 KHz
Bit depth : 16 bits
Compression mode : Lossy
Stream size : 402 MiB (5%)
Title : Rus
Language : Russian

Audio #2
ID : 5
Format : DTS
Format/Info : Digital Theater Systems
Codec ID : A_DTS
Duration : 1h 27mn
Bit rate mode : Constant
Bit rate : 1 510 Kbps
Channel(s) : 6 channels
Channel positions : Front: L C R, Side: L R, LFE
Sampling rate : 48.0 KHz
Bit depth : 24 bits
Compression mode : Lossy
Stream size : 949 MiB (11%)

Text #1
ID : 1
Format : UTF-8
Codec ID : S_TEXT/UTF8
Codec ID/Info : UTF-8 Plain Text
Title : ENG
Language : English

Text #2
ID : 2
Format : UTF-8
Codec ID : S_TEXT/UTF8
Codec ID/Info : UTF-8 Plain Text
Title : Rus
Language : Russian



Скачать Инкассатор через торрент http://i4-imageban-ru.translate.goog/out/2011/07/19/3c67d97885927eb9a9daa63213acd9f8.png Скачать, смотреть онлайн Инкассатор бесплантно в хорошем качестве Описание: Ветеран боевых действий Тай Хэккет возвращается домой после службы в Ираке. В поисках средств к существованию и желания должной ... 10 10 1
Info! Золотая раздача, скачанное не засчитывается.
Торрент: Зарегистрирован [2011-07-19 18:09] · скачан: 55 раз
Статус: √ проверено
Размер: 8.35 GB
Как cкачать? Как скачать Инкассатор через торрент | UTorrent

% Раздел Тема Автор DL S | L
Фильмы 2009 [ 1.36 GB ] Инкассатор / Armored | MVO | Инкассатор / Armored (Нимрод Антал / Nimród Antal killermax2013 Скачать
1 | 0
Фильмы [HD 720p, 1080p] (Хороший звук DUB, MVO) [ 4.61 GB ] Инкассатор / Armored | | 720p Flint3 Скачать
1 | 0
Фильмы [HD 720p, 1080p] (Хороший звук DUB, MVO) [ 2.3 GB ] Инкассатор / Armored | | BDRip Venxxx Скачать
1 | 0
Фильмы 2009 [ 1.36 GB ] Инкассатор / Armored | | HDRip SD Скачать
1 | 0
Фильмы 2009 [ 694 MB ] Инкассатор / Armored | | DVDRip SD Скачать
1 | 0

28-11-2019 20:33  


Отключить вcю реклaмy на сайте, в т.ч. и в плеере онлайн просмотра!

    Дорогой пользователь! Огромная просьба, поблагодарите релизера, оцените раздачу и оставьте свои комментарий, если Вы скачали Инкассатор через торрент бесплатно!!
    Комментировать посты могут только пользователи прошедшие не сложную регистрацию
    Показать сообщения:    


    Инкассатор через торрент
    Скачать бесплатно Инкассатор
    Инкассатор скачать торрент
    Инкассатор смотреть онлайн
    Cкачать фильм Инкассатор бесплатно
    Инкассатор скачать торрент в хорошем качестве
    Инкассатор смотреть онлайн бесплатно в хорошем качестве
    Вы не можете начинать темы
    Вы не можете отвечать на сообщения
    Вы не можете редактировать свои сообщения
    Вы не можете удалять свои сообщения
    Вы не можете голосовать в опросах
    Вы не можете прикреплять файлы к сообщениям
    Вы можете скачивать файлы
    Инкассатор / Armored [2009 г., боевик, триллер, драма, BDRip 1080р] смотреть онлайн, скачать торрент picoco.icu