Ссылка на приватное зеркало нашего сайта всего за 1$. Внимание количество ограничено!!!

2 сезон

iTunes

1 сезон

1

iTunes

iTunes

iTunes

1 сезон

RePack

30

ИГРА 18+

pack

ВАЖНО

!!Акция!!

Alien_RageХит недели

RePack

MK11
pack

Забери бонус

RePack

jed

!!Акция!!

Alien_Rage

RePack

fifa19

RePack

Assassins Creed: Odyssey

RePack

NEED FOR SPEED™ PAYBACK

4 сезон

9 сезон

Бесстыжие 9 сезон

Все сериалы

все сериалы на PB.wtf

RePack

FAR CRY 5
  

Не говори никому / Ne le dis a personne (Гийом Кане) [2006 г., триллер, драма, криминал, детектив, BDRip 1080р] pb.wtf

Не говори никому через торрент pb.wtf

Размер: 7.93 GB | Добавлен: 9 лет 3 мес. назад | Торрент скачан:217 раз
Скачать  

19-07-2011 20:49 Не говори никому Скачать торрент  

Не говори никому
Ne le dis a personne




Год выпуска: 2006
Страна: Франция
Жанр: триллер, драма, криминал, детектив
Продолжительность: 02:10:56
Перевод: Профессиональный (полное дублирование)

Режиссер: Гийом Кане

В ролях: Франсуа Клюзе, Мари-Жозе Крозе, Андре Дюссолье, Кристин Скотт Томас, Франсуа Берлеан, Натали Бэй, Жан Рошфор, Марина Хандз, Жиль Лелуш, Филипп Лефевр, Флоранс Томассен, Оливье Маршаль, Гийом Кане, Брижит Катийон, Самир Гесми

Описание: Восемь лет назад Марго Бек погибла от рук серийного убийцы. Однако после поимки маньяк признал за собой лишь восемь убийств — свое отношение к смерти Марго он всячески отрицал. Но определенные улики, найденные на теле жертвы, позволили обвинить его и в убийстве Марго.

Муж убитой, Александр Бек, до сих пор не может оправиться после гибели жены. Он спасается от пагубных мыслей, с головой погрузившись в свою работу, а дружба с Элен Перкинс не дает ему полностью потерять связь с миром. Но когда рядом с тем местом, где было обнаружено тело Марго, находят еще два трупа и появляются новые улики, полиция возобновляет расследование.

В то же время Александр получает по электронной почте странное письмо, в котором содержится ссылка на веб-камеру и указано время, когда камера начинает работать…



Качество: BDRip 1080р
Формат: MKV
Видео кодек: AVC
Аудио кодек: DTS
Видео: AVC, 1920x816 (2.35), 24.000 fps, 7 916 Kbps (0.206 bit/pixel)
Аудио: DTS, 48.0 KHz, 6 ch, 755 Kbps, CBR (Russian)
Субтитры: Russian, English
Complete name Не говори никому.Ne le dis a personne.2006.BD.Rip.1080p.h264.Rus.mkv
Format : Matroska
File size : 7.93 GiB
Duration : 2h 10mn
Overall bit rate : 8 674 Kbps
Encoded date : UTC 2008-06-27 07:48:06
Writing application : mkvmerge v2.2.0 ('Turn It On Again') built on Mar 4 2008 12:58:26
Writing library : libebml v0.7.7 + libmatroska v0.8.1

Video
ID : 1
Format : AVC
Format/Info : Advanced Video Codec
Format profile : High@L4.1
Format settings, CABAC : Yes
Format settings, ReFrames : 5 frames
Codec ID : V_MPEG4/ISO/AVC
Duration : 2h 10mn
Bit rate : 7 916 Kbps
Width : 1 920 pixels
Height : 816 pixels
Display aspect ratio : 2.35:1
Frame rate : 24.000 fps
Color space : YUV
Chroma subsampling : 4:2:0
Bit depth : 8 bits
Scan type : Progressive
Bits/(Pixel*Frame) : 0.211
Stream size : 7.09 GiB (89%)
Writing library : x264 core 60 r891M 2ca4593
Encoding settings : cabac=1 / ref=5 / deblock=1:-3:-3 / analyse=0x3:0x113 / me=umh / subme=6 / brdo=1 / mixed_ref=1 / me_range=32 / chroma_me=1 / trellis=1 / 8x8dct=1 / cqm=0 / deadzone=21,11 / chroma_qp_offset=0 / threads=6 / nr=0 / decimate=0 / mbaff=0 / fgo=0 / bframes=5 / b_pyramid=1 / b_adapt=1 / b_bias=0 / direct=3 / wpredb=1 / bime=1 / keyint=240 / keyint_min=24 / scenecut=40(pre) / rc=2pass / bitrate=7916 / ratetol=1.0 / rceq='blurCplx^(1-qComp)' / qcomp=1.00 / qpmin=10 / qpmax=51 / qpstep=4 / cplxblur=20.0 / qblur=0.5 / ip_ratio=1.40 / pb_ratio=1.30 / aq=2:1.00
Language : French

Audio
ID : 2
Format : DTS
Format/Info : Digital Theater Systems
Codec ID : A_DTS
Duration : 2h 10mn
Bit rate mode : Constant
Bit rate : 755 Kbps
Channel(s) : 6 channels
Channel positions : Front: L C R, Side: L R, LFE
Sampling rate : 48.0 KHz
Bit depth : 24 bits
Compression mode : Lossy
Stream size : 707 MiB (9%)
Title : DTS 5.1 768 kbps
Language : Russian

Text #1
ID : 3
Format : UTF-8
Codec ID : S_TEXT/UTF8
Codec ID/Info : UTF-8 Plain Text
Language : Russian

Text #2
ID : 4
Format : UTF-8
Codec ID : S_TEXT/UTF8
Codec ID/Info : UTF-8 Plain Text
Language : English
pb.wtf



Скачать Не говори никому через торрент http://i4.imageban.ru/out/2011/07/20/eb8eb1af9b9a07ce3da22d421b6b69a9.png Скачать фильм Не говори никому через торрент бесплантно в хорошем качестве Описание: Восемь лет назад Марго Бек погибла от рук серийного убийцы. Однако после поимки маньяк признал за собой лишь восемь убийств — ... 4.8 10 4
Info! Золотая раздача, скачанное не засчитывается.
Торрент: Зарегистрирован [2011-07-19 20:49] · скачан: 217 раз
Статус: √ проверено
Размер: 7.93 GB
Как cкачать? Как скачать Не говори никому через торрент | qTorrent

% Раздел Тема Автор DL S | L
Фильмы [HD 720p, 1080p] (Хороший звук DUB, MVO) [ 5.81 GB ] Не говори никому / Ne le dis a personne [2006 BDRip 720p by msltel] DUB AVO msltel Скачать
1 | 0
Фильмы [HD 720p, 1080p] (Хороший звук DUB, MVO) [ 15.84 GB ] Не говори никому / Ne le dis a personne [2006 BDRip 1080p by msltel] DUB AVO msltel Скачать
1 | 0
Фильмы 2006-2008 [ 2.1 GB ] Не говори никому / Ne le dis a personne [2006 BDRip -AVC ] stalonе Скачать
3 | 0
Фильмы 2006-2008 [ 2.18 GB ] Не говори никому / Ne le dis a personne [2006 BDRip] m9sо Скачать
1 | 0

28-11-2019 20:33  

Отключить всю рекламу на сайте

    Дорогой пользователь! Огромная просьба, поблагодарите релизера, оцените раздачу и оставьте свои комментарий, если Вы скачали Не говори никому через торрент бесплатно! Внесите свою лепту в развитие PiratBit!
    Комментировать посты могут только пользователи прошедшие не сложную регистрацию
    Показать сообщения:    

    Не говори никому через торрент
    Скачать бесплатно Не говори никому
    Не говори никому скачать торрент
    Не говори никому смотреть онлайн
    Cкачать фильм Не говори никому бесплатно
    Не говори никому скачать торрент в хорошем качестве
    Не говори никому смотреть онлайн бесплатно в хорошем качестве


    Вы не можете начинать темы
    Вы не можете отвечать на сообщения
    Вы не можете редактировать свои сообщения
    Вы не можете удалять свои сообщения
    Вы не можете голосовать в опросах
    Вы не можете прикреплять файлы к сообщениям
    Вы можете скачивать файлы