2 сезон

iTunes

MVO

1

2 сезон

iTunes

iTunes

1 сезон

RePack

30

Ultimate

ВАЖНО

ИГРА 18+

pack

RePack

MK11
pack

Легкие деньги

RePack

jed

RePack

fifa19

RePack

RDR2

RePack

NEED FOR SPEED™ PAYBACK

4 сезон

9 сезон

Бесстыжие 9 сезон

Все сериалы

все сериалы на PB.wtf

RePack

FAR CRY 5

Anonymous, добрый вечер, мы не успеваем собрать деньги на оплату серверов за декабрь и январь, помогите нам пожалуйста в это трудное время. В качестве благодарности мы отключим Вам всю рекламу на сайте (укажите свой ник в строку Ваше имя)!

×
  
Magnet ссылка

Хроники Нарнии: Покоритель Зари 3D / Chronicles of Narnia: The Voyage of the Dawn Treader, The 3D (Майкл Эптид) [2010 г., фэнтези, приключения, семейный, HDRip] 3D Анаглиф red-cyan pb.wtf

Хроники Нарнии: Покоритель Зари 3D через торрент pb.wtf

Размер: 2.19 GB | Добавлен: 9 лет 5 мес. назад | Торрент скачан:164 раза
Скачать  

21-07-2011 10:43 Хроники Нарнии: Покоритель Зари 3D Скачать торрент  

Хроники Нарнии: Покоритель Зари 3D / Chronicles of Narnia: The Voyage of the Dawn Treader, The 3D

Год выпуска: 2010
Страна: США
Жанр: фэнтези, приключения, семейный
Продолжительность: 112 мин.
Перевод: Профессиональный (полное дублирование) [Лицензия]

Режиссер: Майкл Эптид
Продюссер: Эндрю Адамсон, Марк Джонсон, Филип Стюер
Сценарий: Кристофер Маркус, Стефен МакФили, Майкл Петрони

Бюджет: $155 000 000

PG
-Рекомендуется присутствие родителей
Мировой рейтинг IMDB 6.40 (21 270)


В ролях: Бен Барнс, Скандар Кейнс, Джорджи Хенли, Уилл Поултер, Гари Свит, Тильда Суинтон, Анна Попплуэлл, Уильям Моусли, Лиам Нисон, Саймон Пе

Описание: Эдмунд, Люси, их кузен Юстас и король Каспиан отплывают на корабле «Покоритель Зари» на поиски друзей отца Каспиана — семи лордов: Ревелиана, Берна, Аргоза, Мавроморна, Октезиана, Рестимара и Рупа, изгнанных во время недолгого правления тирана Мираза.

Доп. информация: Анаглиф red-cyan

Качество: HDRip
Формат: AVI
Видео кодек: XviD
Аудио кодек: AC3
Видео: 1280х720p; 23,976 fps; 1995 Kbps
Аудио: Russian; AC-3; 384 Kbps; 6ch
Аудио: English; AC-3; 384 Kbps; 6ch
[Общее
Полное имя : The.Chronicles.Of.Narnia_3D_-RusDubEng-720p-RCAna.D.TheJoker_.avi
Формат : AVI
Формат/Информация : Audio Video Interleave
Профиль формата : OpenDML
Размер файла : 2,19 Гбайт
Продолжительность : 1 ч. 52 м.
Общий поток : 2781 Кбит/сек
Программа кодирования : VirtualDubMod 1.5.10.1 (build 2366/release)
Библиотека кодирования : VirtualDubMod build 2366/release

Видео
Идентификатор : 0
Формат : MPEG-4 Visual
Профиль формата : Advanced Simple@L5
Параметр BVOP формата : 1
Параметр QPel формата : Нет
Параметр GMC формата : Без точки перехода
Параметр матрицы формата : Default (MPEG)
Идентификатор кодека : XVID
Идентификатор кодека/Подсказка : XviD
Продолжительность : 1 ч. 52 м.
Битрейт : 1995 Кбит/сек
Ширина : 1280 пикс.
Высота : 720 пикс.
Соотношение сторон : 16:9
Частота кадров : 23,976 кадр/сек
Цветовое пространство : YUV
Подвыборка цветности : 4:2:0
Битовая глубина : 8 бит
Тип развёртки : Прогрессивная
Метод сжатия : С потерями
Бит/(Пиксели*Кадры) : 0.090
Размер потока : 1,57 Гбайт (72%)
Библиотека кодирования : XviD 1.2.1 (UTC 2008-12-04)

Аудио #1
Идентификатор : 1
Формат : AC-3
Формат/Информация : Audio Coding 3
Расширение режима : CM (complete main)
Идентификатор кодека : 2000
Продолжительность : 1 ч. 52 м.
Вид битрейта : Постоянный
Битрейт : 384 Кбит/сек
Каналы : 6 каналов
Расположение каналов : Front: L C R, Side: L R, LFE
Частота : 48,0 КГц
Битовая глубина : 16 бит
Метод сжатия : С потерями
Размер потока : 309 Мбайт (14%)
Выравнивание : Разделение по промежуткам
Продолжительность промежутка : 42 мс. (1,00 видеокадр)
Время предзагрузки промежутка : 500 ms

Аудио #2
Идентификатор : 2
Формат : AC-3
Формат/Информация : Audio Coding 3
Расширение режима : CM (complete main)
Идентификатор кодека : 2000
Продолжительность : 1 ч. 52 м.
Вид битрейта : Постоянный
Битрейт : 384 Кбит/сек
Каналы : 6 каналов
Расположение каналов : Front: L C R, Side: L R, LFE
Частота : 48,0 КГц
Битовая глубина : 16 бит
Метод сжатия : С потерями
Размер потока : 309 Мбайт (14%)
Выравнивание : Разделение по промежуткам
Продолжительность промежутка : 42 мс. (1,00 видеокадр)
Время предзагрузки промежутка : 500 ms]



pb.wtf



Скачать Хроники Нарнии: Покоритель Зари 3D через торрент http://i26.fastpic.ru/big/2011/0721/4d/bddbe4cc0ebf1e9827933cb67028634d.jpg Скачать фильм Хроники Нарнии: Покоритель Зари 3D через торрент бесплантно в хорошем качестве Описание: Эдмунд, Люси, их кузен Юстас и король Каспиан отплывают на корабле «Покоритель Зари» на поиски друзей отца Каспиана — семи ... 5 10 6
Info! Золотая раздача, скачанное не засчитывается.
Торрент: Зарегистрирован [2011-07-21 10:43] · скачан: 164 раз
Статус: √ проверено
Размер: 2.19 GB
Как cкачать? Как скачать Хроники Нарнии: Покоритель Зари 3D через торрент | UTorrent

28-11-2019 20:33  

Отключить всю рекламу на сайте

    Дорогой пользователь! Огромная просьба, поблагодарите релизера, оцените раздачу и оставьте свои комментарий, если Вы скачали Хроники Нарнии: Покоритель Зари 3D через торрент бесплатно! Внесите свою лепту в развитие PiratBit!
    Комментировать посты могут только пользователи прошедшие не сложную регистрацию
    Показать сообщения:    

    Хроники Нарнии: Покоритель Зари 3D через торрент
    Скачать бесплатно Хроники Нарнии: Покоритель Зари 3D
    Хроники Нарнии: Покоритель Зари 3D скачать торрент
    Хроники Нарнии: Покоритель Зари 3D смотреть онлайн
    Cкачать фильм Хроники Нарнии: Покоритель Зари 3D бесплатно
    Хроники Нарнии: Покоритель Зари 3D скачать торрент в хорошем качестве
    Хроники Нарнии: Покоритель Зари 3D смотреть онлайн бесплатно в хорошем качестве


    Вы не можете начинать темы
    Вы не можете отвечать на сообщения
    Вы не можете редактировать свои сообщения
    Вы не можете удалять свои сообщения
    Вы не можете голосовать в опросах
    Вы не можете прикреплять файлы к сообщениям
    Вы можете скачивать файлы