2 сезон

iTunes

MVO

1

2 сезон

iTunes

iTunes

1 сезон

RePack

30

Новинка

ВАЖНО

ИГРА 18+

pack

RePack

MK11
pack

Легкие деньги

RePack

jed

RePack

fifa19

RePack

RDR2

RePack

NEED FOR SPEED™ PAYBACK

4 сезон

9 сезон

Бесстыжие 9 сезон

Все сериалы

все сериалы на PB.wtf

RePack

FAR CRY 5

Anonymous, доброй ночи, мы не успеваем собрать деньги на оплату серверов за декабрь и январь, помогите нам пожалуйста в это трудное время. В качестве благодарности мы отключим Вам всю рекламу на сайте (укажите свой ник в строку Ваше имя)!

×
  
Magnet ссылка

Миссия Дарвина 3D / G-Force 3D (Хойт Йетмен) [2009 г., фэнтези, боевик, комедия, приключения, семейный, BDRip] 3Д (Красно-Синий Анаглиф) pb.wtf

Миссия Дарвина 3D через торрент pb.wtf

Размер: 2.05 GB | Добавлен: 9 лет 5 мес. назад | Торрент скачан:94 раза
Скачать  

23-07-2011 22:03 Миссия Дарвина 3D Скачать торрент  

Миссия Дарвина 3D / G-Force 3D

Год выпуска: 2009
Страна: США
Жанр: фэнтези, боевик, комедия, приключения, семейный
Продолжительность: 1 ч. 24 м.
Перевод: Профессиональный (полное дублирование) [Лицензия]

Режиссер: Хойт Йетмен
Продюссер: Джерри Брукхаймер, Тодд Арноу, Дункан Хендерсон
Сценарий: Кормак Уибберли, Мэриэнн Уибберли, Хойт Йетмен

Бюджет: $150 000 000

PG
-Рекомендуется присутствие родителей
Мировой рейтинг IMDB 5.00 (12 303)


В ролях: Билл Найи, Сэм Рокуэлл, Уилл Арнетт, Джон Фавро, Зак Галифианакис, Николас Кейдж, Келли Гарнер, Пенелопа Крус, Тайлер Патрик Джонс, Стив Буше

Описание: «Миссия Дарвина» — это суперкоманда морских свинок, работающих на правительство США. Для выполнения специальных заданий зверьков подготовил один ученый, и теперь они могут проникать в места, недоступные для людей, вооружившись самыми современными технологиями.В спецподразделение входят: Дарвин — командир отряда, спец по коммуникациям; Хуарес — единственная девушка в команде, спец по боевым искусствам; Бластер — «мускулы» команды. Вместе им предстоит разрушить планы злого гения, мечтающего захватить Влacть над миром.

Доп. информация: 3Д (Красно-Синий Анаглиф)

Качество: MPEG-4 Visual
Формат: AVI
Видео кодек: XviD
Аудио кодек: AC3
Видео: 1280x720, 3015 Kbps, 25.000 fps
Аудио: Rus.AC-3, 48,0 КГц, 448 Кбит/сек, 2 канала : Front: L R
[Общее
Полное имя : G-Force_3D_AnRC.avi
Формат : AVI
Формат/Информация : Audio Video Interleave
Профиль формата : OpenDML
Размер файла : 2,05 Гбайт
Продолжительность : 1 ч. 24 м.
Общий поток : 3476 Кбит/сек
Библиотека кодирования : VirtualDub build 32839/release

Видео
Идентификатор : 0
Формат : MPEG-4 Visual
Профиль формата : Advanced Simple@L5
Параметр BVOP формата : 2
Параметр QPel формата : Нет
Параметр GMC формата : Без точки перехода
Параметр матрицы формата : Default (H.263)
Режим смешивания : Сжатый битовый поток
Идентификатор кодека : XVID
Идентификатор кодека/Подсказка : XviD
Продолжительность : 1 ч. 24 м.
Битрейт : 3015 Кбит/сек
Ширина : 1280 пикс.
Высота : 720 пикс.
Соотношение сторон : 16:9
Частота кадров : 25,000 кадр/сек
Цветовое пространство : YUV
Подвыборка цветности : 4:2:0
Битовая глубина : 8 бит
Тип развёртки : Прогрессивная
Метод сжатия : С потерями
Бит/(Пиксели*Кадры) : 0.131
Размер потока : 1,78 Гбайт (87%)
Библиотека кодирования : XviD 1.2.1 (UTC 2008-12-04)

Аудио
Идентификатор : 1
Формат : AC-3
Формат/Информация : Audio Coding 3
Расширение режима : CM (complete main)
Идентификатор кодека : 2000
Продолжительность : 1 ч. 24 м.
Вид битрейта : Постоянный
Битрейт : 448 Кбит/сек
Каналы : 2 канала
Расположение каналов : Front: L R
Частота : 48,0 КГц
Битовая глубина : 16 бит
Метод сжатия : С потерями
Размер потока : 271 Мбайт (13%)
Выравнивание : Соединение по промежуткам
Продолжительность промежутка : 40 мс. (1,00 видеокадр)
Время предзагрузки промежутка : 512 ms]



pb.wtf



Скачать Миссия Дарвина 3D через торрент http://i25.fastpic.ru/big/2011/0724/05/355e5d08f2bc41aa1cb77855d4d5c405.jpg Скачать фильм Миссия Дарвина 3D через торрент бесплантно в хорошем качестве Описание: «Миссия Дарвина» — это суперкоманда морских свинок, работающих на правительство США. Для выполнения специальных заданий ... 9 10 1
Info! Золотая раздача, скачанное не засчитывается.
Торрент: Зарегистрирован [2011-07-23 22:03] · скачан: 94 раз
Статус: √ проверено
Размер: 2.05 GB
Как cкачать? Как скачать Миссия Дарвина 3D через торрент | UTorrent

% Раздел Тема Автор DL S | L
Аркады [ 1.99 GB ] Миссия Дарвина / G-Force [лицензияRUArcade / 3D / 3rd Person] xyligant Скачать
1 | 0

28-11-2019 20:33  

Отключить всю рекламу на сайте

    Дорогой пользователь! Огромная просьба, поблагодарите релизера, оцените раздачу и оставьте свои комментарий, если Вы скачали Миссия Дарвина 3D через торрент бесплатно! Внесите свою лепту в развитие PiratBit!
    Комментировать посты могут только пользователи прошедшие не сложную регистрацию
    Показать сообщения:    

    Миссия Дарвина 3D через торрент
    Скачать бесплатно Миссия Дарвина 3D
    Миссия Дарвина 3D скачать торрент
    Миссия Дарвина 3D смотреть онлайн
    Cкачать фильм Миссия Дарвина 3D бесплатно
    Миссия Дарвина 3D скачать торрент в хорошем качестве
    Миссия Дарвина 3D смотреть онлайн бесплатно в хорошем качестве


    Вы не можете начинать темы
    Вы не можете отвечать на сообщения
    Вы не можете редактировать свои сообщения
    Вы не можете удалять свои сообщения
    Вы не можете голосовать в опросах
    Вы не можете прикреплять файлы к сообщениям
    Вы можете скачивать файлы