Ссылка на приватное зеркало нашего сайта всего за 1$. Внимание количество ограничено!!!

2 сезон

iTunes

1 сезон

1

iTunes

iTunes

iTunes

1 сезон

RePack

30

ИГРА 18+

pack

ВАЖНО

!!Акция!!

Alien_RageХит недели

RePack

MK11
pack

Забери бонус

RePack

jed

!!Акция!!

Alien_Rage

RePack

fifa19

RePack

Assassins Creed: Odyssey

RePack

NEED FOR SPEED™ PAYBACK

4 сезон

9 сезон

Бесстыжие 9 сезон

Все сериалы

все сериалы на PB.wtf

RePack

FAR CRY 5
  

Иллюзионист / The Illusionist (Нил Бёргер) [2006 г., триллер, драма, мелодрама, детектив, BDRip 1080р] pb.wtf

Иллюзионист через торрент pb.wtf

Размер: 8.81 GB | Добавлен: 9 лет 3 мес. назад | Торрент скачан:246 раз
Скачать  

24-07-2011 10:26 Иллюзионист Скачать торрент  

Иллюзионист
The Illusionist


«Всё иллюзорно... Кроме любви»



Год выпуска: 2006
Страна: США, Чехия
Жанр: триллер, драма, мелодрама, детектив
Продолжительность: 1:48:56
Перевод: Профессиональный (полное дублирование)

Режиссер: Нил Бёргер

В ролях: Эдвард Нортон, Пол Джаматти, Джессика Бил, Руфус Сьюэлл, Эдди Марсан, Джэйк Вуд, Том Фишер, Аарон Джонсон, Элинор Томлинсон, Карл Джонсон.

Описание: Вена. Начало 20 века. В городе появляется загадочный человек, называвший себя иллюзионистом Эйзенхаймом. Он показывает публике невиданные фокусы, которые кажутся не иначе как волшебством.

Слава о необыкновенном чародее доходит до кронпринца Леопольда, который почтил своим присутствием одно из представлений Эйзенхайма. Леопольда сопровождает его будущая невеста Софи. Её появление в зале дает толчок для целой вереницы необъяснимых событий, корни которых уходят в прошлое…



Качество: BDRip 1080р
Формат: MKV
Видео кодек: AVC
Аудио кодек: AC3
Видео: AVC, 1920x1040 (16/9), 23.976 fps, 10.0 Mbps (0.209 bit/pixel)
Аудио #1: AC-3, 48.0 KHz, 6 ch, 640 Kbps, CBR (Russian)
Аудио #2: AC-3, 48.0 KHz, 6 ch, 640 Kbps, CBR (English)
Субтитры: Russian, English
Complete name The Illusionist (2006;1080p,x264,Rus,Eng,AC3-5.1).mkv
Format : Matroska
File size : 8.81 GiB
Duration : 1h 49mn
Overall bit rate : 11.5 Mbps
Movie name : The Illusionist
Encoded date : UTC 2009-06-24 17:37:25
Writing application : mkvmerge v2.4.0 ('Fumbling Towards Ecstasy') built on Jun 5 2009 00:47:29
Writing library : libebml v0.7.8 + libmatroska v0.8.1
Attachment : Yes

Video
ID : 1
Format : AVC
Format/Info : Advanced Video Codec
Format profile : High@L4.1
Format settings, CABAC : Yes
Format settings, ReFrames : 4 frames
Format settings, GOP : N=1
Codec ID : V_MPEG4/ISO/AVC
Duration : 1h 49mn
Bit rate : 10.0 Mbps
Width : 1 920 pixels
Height : 1 040 pixels
Display aspect ratio : 16:9
Frame rate : 23.976 fps
Color space : YUV
Chroma subsampling : 4:2:0
Bit depth : 8 bits
Scan type : Progressive
Bits/(Pixel*Frame) : 0.209
Stream size : 7.65 GiB (87%)
Title : Video encoded by Nickolli@mail.ru http://torrents.ru/forum/profile.php?mode=viewprofile&u=1063961
Writing library : x264 core 67 r1170M 364d7df
Encoding settings : cabac=1 / ref=4 / deblock=1:0:0 / analyse=0x3:0x113 / me=umh / subme=9 / psy_rd=1.0:0.0 / mixed_ref=1 / me_range=32 / chroma_me=1 / trellis=2 / 8x8dct=1 / cqm=0 / deadzone=21,11 / chroma_qp_offset=-2 / threads=3 / nr=0 / decimate=1 / mbaff=0 / bframes=16 / b_pyramid=1 / b_adapt=2 / b_bias=0 / direct=3 / wpredb=1 / keyint=250 / keyint_min=25 / scenecut=40 / rc=crf / crf=20.0 / qcomp=0.60 / qpmin=10 / qpmax=51 / qpstep=4 / vbv_maxrate=50000 / vbv_bufsize=50000 / ip_ratio=1.40 / pb_ratio=1.30 / aq=1:1.00
Language : English

Audio #1
ID : 2
Format : AC-3
Format/Info : Audio Coding 3
Mode extension : CM (complete main)
Codec ID : A_AC3
Duration : 1h 49mn
Bit rate mode : Constant
Bit rate : 640 Kbps
Channel(s) : 6 channels
Channel positions : Front: L C R, Side: L R, LFE
Sampling rate : 48.0 KHz
Bit depth : 16 bits
Compression mode : Lossy
Stream size : 501 MiB (6%)
Language : Russian

Audio #2
ID : 3
Format : AC-3
Format/Info : Audio Coding 3
Mode extension : CM (complete main)
Codec ID : A_AC3
Duration : 1h 49mn
Bit rate mode : Constant
Bit rate : 640 Kbps
Channel(s) : 6 channels
Channel positions : Front: L C R, Side: L R, LFE
Sampling rate : 48.0 KHz
Bit depth : 16 bits
Compression mode : Lossy
Stream size : 501 MiB (6%)
Language : English

Text #1
ID : 4
Format : UTF-8
Codec ID : S_TEXT/UTF8
Codec ID/Info : UTF-8 Plain Text
Language : Russian

Text #2
ID : 5
Format : UTF-8
Codec ID : S_TEXT/UTF8
Codec ID/Info : UTF-8 Plain Text
Language : English

Menu
00:00:00.000 : ru:Глава 01
00:06:04.489 : ru:Глава 02
00:13:06.786 : ru:Глава 03
00:22:00.986 : ru:Глава 04
00:36:55.796 : ru:Глава 05
00:43:03.956 : ru:Глава 06
00:48:54.598 : ru:Глава 07
00:53:27.078 : ru:Глава 08
01:02:35.168 : ru:Глава 09
01:09:34.253 : ru:Глава 10
01:18:44.511 : ru:Глава 11
01:22:32.572 : ru:Глава 12
01:28:58.833 : ru:Глава 13
01:34:00.843 : ru:Глава 14
01:42:53.250 : ru:Глава 15
01:44:22.381 : ru:Глава 16
pb.wtf



Скачать Иллюзионист через торрент http://i1.imageban.ru/out/2011/07/24/dc029cfcb5392bf276f926f682fe458a.png Скачать фильм Иллюзионист через торрент бесплантно в хорошем качестве Описание: Вена. Начало 20 века. В городе появляется загадочный человек, называвший себя иллюзионистом Эйзенхаймом. Он показывает публике ... 10 10 2
Info! Золотая раздача, скачанное не засчитывается.
Торрент: Зарегистрирован [2011-07-24 10:26] · скачан: 246 раз
Статус: √ проверено
Размер: 8.81 GB
Как cкачать? Как скачать Иллюзионист через торрент | qTorrent

% Раздел Тема Автор DL S | L
Фильмы 2006-2008 [ 2.19 GB ] Иллюзионист / The Illusionist [2006 Мело BDRip-AVC] DUB killermax2013 Скачать
1 | 0
Фильмы (Blu-ray, BD-Remux, HDDVD) [ 19.4 GB ] Иллюзионист / The Illusionist [2006 Чехия BDRemux] DUB -Lockdown- Скачать
1 | 0
Фильмы 2006-2008 [ 1.37 GB ] Иллюзионист / The Illusionist [2006 DVDRip DUB ] Vampir7 Скачать
1 | 0
Фильмы [HD 720p, 1080p] (Хороший звук DUB, MVO) [ 5.53 GB ] Иллюзионист / The Illusionist [2006 BDRip лицензия] BaRSSS Скачать
1 | 0
Фильмы 2006-2008 [ 2.18 GB ] Иллюзионист / The Illusionist [2006 BDRip-AVC] -=BIGBOSS=- Скачать
1 | 0
Фильмы 2006-2008 [ 744 MB ] Иллюзионист / Illusionist The [2006 ... HDRip] Venxxx Скачать
1 | 0
Фильмы [HD 720p, 1080p] (Хороший звук DUB, MVO) [ 4.37 GB ] Иллюзионист / The Illusionist [2006 BDRip] [720p|DVD5] Курортник Скачать
1 | 0

28-11-2019 20:33  

Отключить всю рекламу на сайте

21-09-2011 19:59 Иллюзионист Скачать торрент  

Спасибо большое автору, посмотрю в хорошем качестве pb.wtf



    Дорогой пользователь! Огромная просьба, поблагодарите релизера, оцените раздачу и оставьте свои комментарий, если Вы скачали Иллюзионист через торрент бесплатно! Внесите свою лепту в развитие PiratBit!
    Комментировать посты могут только пользователи прошедшие не сложную регистрацию
    Показать сообщения:    

    Иллюзионист через торрент
    Скачать бесплатно Иллюзионист
    Иллюзионист скачать торрент
    Иллюзионист смотреть онлайн
    Cкачать фильм Иллюзионист бесплатно
    Иллюзионист скачать торрент в хорошем качестве
    Иллюзионист смотреть онлайн бесплатно в хорошем качестве


    Вы не можете начинать темы
    Вы не можете отвечать на сообщения
    Вы не можете редактировать свои сообщения
    Вы не можете удалять свои сообщения
    Вы не можете голосовать в опросах
    Вы не можете прикреплять файлы к сообщениям
    Вы можете скачивать файлы