2 сезон

iTunes

MVO

1

2 сезон

iTunes

iTunes

1 сезон

RePack

30

Новинка

ВАЖНО

ИГРА 18+

pack

RePack

MK11
pack

Легкие деньги

RePack

jed

RePack

fifa19

RePack

RDR2

RePack

NEED FOR SPEED™ PAYBACK

4 сезон

9 сезон

Бесстыжие 9 сезон

Все сериалы

все сериалы на PB.wtf

RePack

FAR CRY 5

Anonymous, доброе утро, мы не успеваем собрать деньги на оплату серверов за декабрь и январь, помогите нам пожалуйста в это трудное время. В качестве благодарности мы отключим Вам всю рекламу на сайте (укажите свой ник в строку Ваше имя)!

×
  
Magnet ссылка

Путешествие к Центру Земли 3D / Journey to the Center of the Earth 3D (Эрик Бревиг) [2008 г., фантастика, боевик, триллер, приключения, семейный, DVD5] 3D Анаглиф red-cyan pb.wtf

Путешествие к Центру Земли 3D через торрент pb.wtf

Размер: 4.09 GB | Добавлен: 9 лет 5 мес. назад | Торрент скачан:231 раз
Скачать  

24-07-2011 13:44 Путешествие к Центру Земли 3D Скачать торрент  

Путешествие к Центру Земли 3D / Journey to the Center of the Earth 3D

Год выпуска: 2008
Страна: США
Жанр: фантастика, боевик, триллер, приключения, семейный
Продолжительность: 01:32:34
Перевод: Профессиональный (многоголосый, закадровый) [Лицензия]

Режиссер: Эрик Бревиг
Продюссер: Бо Флинн, Шарлотта Клэй Хаггинс, Кейл Бойтер
Сценарий: Майкл Д. Уайсс, Дженнифер Флэкетт, Марк Левин

Бюджет: $60 000 000

PG
-Рекомендуется присутствие родителей
Мировой рейтинг IMDB 5.80 (28 467)


В ролях: Брендан Фрейзер, Джош Хатчерсон, Анита Брием, Сет Майерс, Жан Мишель Паре, Джейн Вилер, Фрэнк Фонтейн, Джанкарло Кальтабиано, Каньехтио Хо

Описание: 3D-экранизация одноименного романа Жюль Верна. Действие перенесено в день нынешний. Чудаковатый профессор Андерсон (Брендан Фрейзер), поднятый на смех коллегами за свои эксцентричные теории, путешествует с племянником по Исландии, где находит пещеру, ведущую в недра Земли. В недрах перед путешественниками открывается удивительный подземный мир, населенный опасными и странными созданиями.
Трёхмерное приключенческое полотно по мотивам сразу нескольких классических сюжетов о том, как герои попадают в некий подземный мир, где полно странных животных, включая динозавров, растекающейся лавы и пр. На этот раз сюжет проецируется на Брендана Фрейзера и подростка в исполнении Джоша Хатчерсона.

Доп. информация: 3D Анаглиф red-cyan

Качество: DVD5
Формат: MPEG
Видео кодек: MPEG2
Аудио кодек: AC3
Видео: 720x576, (16:9), 25.00fps, 8904kbps
Аудио: Russian Dolby Digital AC3, 48000 Hz, 6ch Surround, 448 kbps, Front: L C R, Side: L R, LFE
Аудио: Eng Dolby Digital AC3, 48000 Hz, 6ch Surround, 448 kbps, Front: L C R, Side: L R, LFE
[Общее
Полное имя : Journey.to.the.Center.of.the.Earth.2008.3D.Anaglyph(red-cyan).AC3.Rus.Eng.DVD-5\VIDEO_TS\VTS_01_1.VOB
Формат : MPEG-PS
Размер файла : 1024 Мбайт
Продолжительность : 22 м.
Общий поток : 6336 Кбит/сек

Видео
Идентификатор : 224 (0xE0)
Формат : MPEG Video
Версия формата : Version 2
Профиль формата : Main@Main
Параметр BVOP формата : Да
Параметр матрицы формата : По умолчанию
Продолжительность : 22 м.
Вид битрейта : Переменный
Битрейт : 5314 Кбит/сек
Максимальный битрейт : 8904 Кбит/сек
Ширина : 720 пикс.
Высота : 576 пикс.
Соотношение сторон : 16:9
Частота кадров : 25,000 кадр/сек
Стандарт вещания : PAL
Цветовое пространство : YUV
Подвыборка цветности : 4:2:0
Битовая глубина : 8 бит
Тип развёртки : Прогрессивная
Метод сжатия : С потерями
Бит/(Пиксели*Кадры) : 0.512
Размер потока : 859 Мбайт (84%)

Аудио #1
Идентификатор : 189 (0xBD)-128 (0x80)
Формат : AC-3
Формат/Информация : Audio Coding 3
Расширение режима : CM (complete main)
Режим смешивания : DVD-Video
Продолжительность : 22 м.
Вид битрейта : Постоянный
Битрейт : 448 Кбит/сек
Каналы : 6 каналов
Расположение каналов : Front: L C R, Side: L R, LFE
Частота : 48,0 КГц
Битовая глубина : 16 бит
Метод сжатия : С потерями
Размер потока : 72,4 Мбайт (7%)

Аудио #2
Идентификатор : 189 (0xBD)-129 (0x81)
Формат : AC-3
Формат/Информация : Audio Coding 3
Расширение режима : CM (complete main)
Режим смешивания : DVD-Video
Продолжительность : 22 м.
Вид битрейта : Постоянный
Битрейт : 448 Кбит/сек
Каналы : 6 каналов
Расположение каналов : Front: L C R, Side: L R, LFE
Частота : 48,0 КГц
Битовая глубина : 16 бит
Метод сжатия : С потерями
Размер потока : 72,4 Мбайт (7%)

Меню]




pb.wtf



Скачать Путешествие к Центру Земли 3D через торрент http://i25.fastpic.ru/big/2011/0724/aa/b9de8e6e245d5b0bdc80b7e0f1dc6faa.jpg Скачать фильм Путешествие к Центру Земли 3D через торрент бесплантно в хорошем качестве Описание: 3D-экранизация одноименного романа Жюль Верна. Действие перенесено в день нынешний. Чудаковатый профессор Андерсон (Брендан ... 10 10 1
Info! Золотая раздача, скачанное не засчитывается.
Торрент: Зарегистрирован [2011-07-24 13:44] · скачан: 231 раз
Статус: √ проверено
Размер: 4.09 GB
Как cкачать? Как скачать Путешествие к Центру Земли 3D через торрент | UTorrent

28-11-2019 20:33  

Отключить всю рекламу на сайте

    Дорогой пользователь! Огромная просьба, поблагодарите релизера, оцените раздачу и оставьте свои комментарий, если Вы скачали Путешествие к Центру Земли 3D через торрент бесплатно! Внесите свою лепту в развитие PiratBit!
    Комментировать посты могут только пользователи прошедшие не сложную регистрацию
    Показать сообщения:    

    Путешествие к Центру Земли 3D через торрент
    Скачать бесплатно Путешествие к Центру Земли 3D
    Путешествие к Центру Земли 3D скачать торрент
    Путешествие к Центру Земли 3D смотреть онлайн
    Cкачать фильм Путешествие к Центру Земли 3D бесплатно
    Путешествие к Центру Земли 3D скачать торрент в хорошем качестве
    Путешествие к Центру Земли 3D смотреть онлайн бесплатно в хорошем качестве


    Вы не можете начинать темы
    Вы не можете отвечать на сообщения
    Вы не можете редактировать свои сообщения
    Вы не можете удалять свои сообщения
    Вы не можете голосовать в опросах
    Вы не можете прикреплять файлы к сообщениям
    Вы можете скачивать файлы