2 сезон

iTunes

MVO

1

2 сезон

iTunes

iTunes

1 сезон

RePack

30

Новинка

ВАЖНО

ИГРА 18+

pack

RePack

MK11
pack

Легкие деньги

RePack

jed

RePack

fifa19

RePack

RDR2

RePack

NEED FOR SPEED™ PAYBACK

4 сезон

9 сезон

Бесстыжие 9 сезон

Все сериалы

все сериалы на PB.wtf

RePack

FAR CRY 5

Anonymous, доброй ночи, мы не успеваем собрать деньги на оплату серверов за декабрь и январь, помогите нам пожалуйста в это трудное время. В качестве благодарности мы отключим Вам всю рекламу на сайте (укажите свой ник в строку Ваше имя)!

×
  
Magnet ссылка

Врата 3D / The Hole 3D (Джо Данте/Joe Dante) [2009 г., Ужасы, BDRip] pb.wtf

Врата 3D через торрент pb.wtf

Размер: 6.32 GB | Добавлен: 9 лет 6 мес. назад | Торрент скачан:401 раз
Скачать  

26-07-2011 15:57 Врата 3D Скачать торрент  


Врата 3D / The Hole 3D

Год выпуска: 2009
Страна: США
Жанр: Ужасы
Продолжительность: 01:32:38
Перевод: Профессиональный (полное дублирование)
[Лицензия]

Режисер: Джо Данте/Joe Dante
Продюссер: Крис Бендер, Вики Сотеран, Дж.С. Спинк
Сценарий: Хавьер Наваррете


Бюджет: Сборы в России: $1 631 873 Сборы в Мире: $9 941 072
Премьера в мире:11 сентября 2009 года




В ролях:Крис Дж. Келли, Тери Поло, Брюс Дерн, Хейли Беннетт, Натан Гэмбл, Дик Миллер, Куинн Лорд, Джон ДеСантис, Джессика Жюст, Чорд Оуверстрит

Описание:Куда уж хуже! — именно так думает 17-ти летний Дени и его 10-ти летний брат Лукас, когда мать перевозит их из Нью-Йорка в сонный городишко Бенсонвиль. Не спеши расстраиваться Дени: твоя новая соседка Джули очень даже ничего. Мама всё больше пропадает на работе, ей некогда заниматься детьми, и братья находят себе занятие: исследовать своё новое место жительства. Дени всё больше интересуется Джулией, и всё меньше своим младшим братом.
Но всё изменится, когда они найдут зловещую бездонную дыру, закрытую люком в подвале. И открыв крышку люка, братьев пронизывает леденящий сердце холод — этот бездонный колодец является вратами в миры тьмы. И теперь, когда они выпустили зло на волю, в каждой тени оживут их потаённые страхи, и им придётся встретится лицом к лицу с ужасом, чтобы закрыть врата навсегда.

Доп. информация:3D: OverUnder / Вертикальная стереопара


Качество: BDRip
Формат: MKV
Видео кодек: AVC
Аудио кодек: AC3
Видео: AVC at 9131 Кбит/сек Aspect : 1280 x 1440 (0.889) at 23.976 fps
Аудио: AC-3 at 448 Кбит/сек Infos : 6 каналов, 48,0 КГц
Общее
Уникальный идентификатор : 177758614132339866948242171612692226116 (0x85BB105415962C5696596E04BFC42044)
Полное имя : D:\Фильмы\3D Фильмы\The Hole 3D.mkv
Формат : Matroska
Размер файла : 6,32 Гбайт
Продолжительность : 1 ч. 32 м.
Общий поток : 9773 Кбит/сек
Дата кодирования : UTC 2010-11-19 16:57:28
Программа кодирования : mkvmerge v3.4.0 ('Rapunzel') сборка от May 15 2010 09:38:20
Библиотека кодирования : libebml v0.8.0 + libmatroska v0.9.0

Видео
Идентификатор : 1
Формат : AVC
Формат/Информация : Advanced Video Codec
Профиль формата : High@L4.1
Параметр CABAC формата : Да
Параметр ReFrames формата : 4 кадра
Идентификатор кодека : V_MPEG4/ISO/AVC
Продолжительность : 1 ч. 32 м.
Битрейт : 9131 Кбит/сек
Ширина : 1280 пикс.
Высота : 1440 пикс.
Соотношение сторон : 0,889
Частота кадров : 23,976 кадр/сек
Частота кадров в оригинале : 25,000 кадр/сек
Цветовое пространство : YUV
Подвыборка цветности : 4:2:0
Битовая глубина : 8 бит
Тип развёртки : Прогрессивная
Бит/(Пиксели*Кадры) : 0.207
Размер потока : 5,90 Гбайт (93%)
Библиотека кодирования : x264 core 107 r1745 4785e8e
Настройки программы : cabac=1 / ref=4 / deblock=1:-2:-2 / analyse=0x3:0x113 / me=umh / subme=7 / psy=1 / psy_rd=1.00:0.00 / mixed_ref=1 / me_range=16 / chroma_me=1 / trellis=2 / 8x8dct=1 / cqm=0 / deadzone=21,11 / fast_pskip=1 / chroma_qp_offset=-3 / threads=6 / sliced_threads=0 / nr=0 / decimate=1 / interlaced=0 / constrained_intra=0 / bframes=6 / b_pyramid=0 / b_adapt=2 / b_bias=0 / direct=3 / weightb=1 / open_gop=0 / weightp=2 / keyint=250 / keyint_min=23 / scenecut=40 / intra_refresh=0 / rc_lookahead=40 / rc=crf / mbtree=1 / crf=18.0 / qcomp=0.60 / qpmin=10 / qpmax=51 / qpstep=4 / ip_ratio=1.40 / aq=1:1.00
Язык : English

Аудио
Идентификатор : 2
Формат : AC-3
Формат/Информация : Audio Coding 3
Расширение режима : CM (complete main)
Идентификатор кодека : A_AC3
Продолжительность : 1 ч. 32 м.
Вид битрейта : Постоянный
Битрейт : 448 Кбит/сек
Каналы : 6 каналов
Расположение каналов : Front: L C R, Side: L R, LFE
Частота : 48,0 КГц
Битовая глубина : 16 бит
Метод сжатия : С потерями
Размер потока : 297 Мбайт (5%)
pb.wtf



Скачать Врата 3D через торрент http://i29.fastpic.ru/big/2011/0904/aa/14dc81baaae400f7daef6ff899c3fdaa.jpg Скачать фильм Врата 3D через торрент бесплантно в хорошем качестве Описание:Куда уж хуже! — именно так думает 17-ти летний Дени и его 10-ти летний брат Лукас, когда мать перевозит их из Нью-Йорка в сонный ... 8.5 10 2
Info! Золотая раздача, скачанное не засчитывается.
Торрент: Зарегистрирован [2011-07-26 15:57] · скачан: 401 раз
Статус: √ проверено
Размер: 6.32 GB
Как cкачать? Как скачать Врата 3D через торрент | UTorrent

% Раздел Тема Автор DL S | L
3D Фильмы [ 2 GB ] Врата 3Д / The Hole 3D [2009 HDRip] Анаглиф red-cyan slaventi-69 Скачать
1 | 0


Последний раз редактировалось: chenya28 (2011-09-04 13:05), всего редактировалось 1 раз

28-11-2019 20:33  

Отключить всю рекламу на сайте

27-07-2011 22:25 Врата 3D Скачать торрент  

и как это смотреть?))pb.wtf



28-07-2011 13:52 Врата 3D Скачать торрент  

Чтоб посматреть на PowerDVD.если 3D МОНИТОР открываем плеер заходим в настроики 3D дисплея( кнопка находится в низу с права краиняя) там появится акошка в нем ОБЩИЕ,ИСХОДНЫЙ ФАИЛ,УСТРОИСВА.ВЫБИРАЕМ УСТРОИСТВА там выбираем HDMI 1.4 enabled 3D TV Нажимаем OK и в исходнам фаиле выбираем метотод прасмотра лудше выбрать автоопределение ,Нажимаем 3D.Если просматреть в англиф то делаем фсе тоже самое толька выбираем Стереоскапический режим красный/гол ево можна смотреть на любом маниторе соответствено в очках(красный/гол)(PowerDVD)ссылка
pb.wtf



31-07-2011 07:58 Врата 3D Скачать торрент  

да,как это смотреть?pb.wtf



01-08-2011 10:16 Врата 3D Скачать торрент  

получилось,скачал Stereoscopic_Player_1.7.3 надел очки и всё! [img=left]http://smages.com/?v=uzu.jpg[/img]pb.wtf



    Дорогой пользователь! Огромная просьба, поблагодарите релизера, оцените раздачу и оставьте свои комментарий, если Вы скачали Врата 3D через торрент бесплатно! Внесите свою лепту в развитие PiratBit!
    Комментировать посты могут только пользователи прошедшие не сложную регистрацию
    Показать сообщения:    

    Врата 3D через торрент
    Скачать бесплатно Врата 3D
    Врата 3D скачать торрент
    Врата 3D смотреть онлайн
    Cкачать фильм Врата 3D бесплатно
    Врата 3D скачать торрент в хорошем качестве
    Врата 3D смотреть онлайн бесплатно в хорошем качестве


    Вы не можете начинать темы
    Вы не можете отвечать на сообщения
    Вы не можете редактировать свои сообщения
    Вы не можете удалять свои сообщения
    Вы не можете голосовать в опросах
    Вы не можете прикреплять файлы к сообщениям
    Вы можете скачивать файлы