Ссылка на приватное зеркало нашего сайта всего за 1$. Внимание количество ограничено!!!

2 сезон

iTunes

1 сезон

1

iTunes

iTunes

iTunes

1 сезон

RePack

30

ИГРА 18+

pack

ВАЖНО

!!Акция!!

Alien_RageХит недели

RePack

MK11
pack

Забери бонус

RePack

jed

!!Акция!!

Alien_Rage

RePack

fifa19

RePack

Assassins Creed: Odyssey

RePack

NEED FOR SPEED™ PAYBACK

4 сезон

9 сезон

Бесстыжие 9 сезон

Все сериалы

все сериалы на PB.wtf

RePack

FAR CRY 5
  

Парфюмер: История одного убийцы / Perfume: The Story of a Murderer (Том Тыквер) [2006 г., Триллер, драма, BDRip 1080р] pb.wtf

Парфюмер: История одного убийцы через торрент pb.wtf

Размер: 13.48 GB | Добавлен: 9 лет 2 мес. назад | Торрент скачан:26 раз
Скачать  

26-07-2011 16:54 Парфюмер: История одного убийцы Скачать торрент  

Парфюмер: История одного убийцы
Perfume: The Story of a Murderer




Год выпуска: 2006
Страна: США, Германия, Франция, Испания
Жанр: Триллер, драма
Продолжительность: 02:27:24
Перевод: Профессиональный (полное дублирование)

Режиссер: Том Тыквер

В ролях: Бен Уишоу, Дастин Хоффман, Алан Рикман, Рейчел Хард-Вуд, Андрэ Эррера, Саймон Чендлер, Дэвид Колдер, Ричард Феликс, Берджит Миничмейр, Рег Уилсон

Описание: Жестокий, никогда не знавший любви, сирота Жан-Батист Гренуй настоящих успехов достиг лишь на одном поприще – среди парфюмеров ему никогда не было равных. По его духам сходит с ума весь высший свет, не подозревая о том, какой страшной ценой будет получен последний, идеальный аромат.



Качество: BDRip 1080р
Формат: MKV
Видео кодек: AVC
Аудио кодек: DTS
Видео: AVC, 1920x816 (2.35), 23.976 fps, 11.3 Mbps (0.294 bit/pixel)
Аудио #1: DTS, 48.0 KHz, 6 ch, 755 Kbps, CBR (Russian)
Аудио #2: AC-3, 48.0 KHz, 6 ch, 384 Kbps, CBR (Ukrainian)
Аудио #3: AC-3, 48.0 KHz, 6 ch, 640 Kbps, CBR (English)
Субтитры: Russian
Complete name Perfume.The.Story.Of.A.Murderer.2006.1080p.BluRay.x264.mkv
Format : Matroska
File size : 13.5 GiB
Duration : 2h 27mn
Overall bit rate : 13.1 Mbps
Movie name : HDClub
Encoded date : UTC 2008-10-02 13:21:12
Writing application : mkvmerge v2.0.2 ('You're My Flame') built on Feb 21 2007 23:40:55
Writing library : libebml v0.7.7 + libmatroska v0.8.1

Video
ID : 1
Format : AVC
Format/Info : Advanced Video Codec
Format profile : High@L4.1
Format settings, CABAC : Yes
Format settings, ReFrames : 5 frames
Codec ID : V_MPEG4/ISO/AVC
Duration : 2h 27mn
Bit rate : 11.3 Mbps
Width : 1 920 pixels
Height : 816 pixels
Display aspect ratio : 2.35:1
Frame rate : 23.976 fps
Color space : YUV
Chroma subsampling : 4:2:0
Bit depth : 8 bits
Scan type : Progressive
Bits/(Pixel*Frame) : 0.301
Stream size : 11.4 GiB (84%)
Title : HDClub
Writing library : x264 core 60
Encoding settings : cabac=1 / ref=5 / deblock=1:-3:-3 / analyse=0x3:0x113 / me=umh / subme=6 / psy_rd=1.000000 / brdo=1 / mixed_ref=1 / me_range=16 / chroma_me=1 / trellis=0 / 8x8dct=1 / cqm=2 / deadzone=6,4 / chroma_qp_offset=0 / threads=6 / nr=0 / decimate=0 / mbaff=0 / bframes=16 / b_pyramid=1 / b_adapt=1 / b_bias=0 / direct=1 / wpredb=1 / bime=1 / keyint=250 / keyint_min=25 / scenecut=40(pre) / rc=2pass / bitrate=11311 / ratetol=1.0 / rceq='blurCplx^(1-qComp)' / qcomp=1.00 / qpmin=10 / qpmax=51 / qpstep=4 / cplxblur=20.0 / qblur=0.5 / ip_ratio=1.40 / pb_ratio=1.30 / aq=2:1.00
Language : English

Audio #1
ID : 2
Format : DTS
Format/Info : Digital Theater Systems
Codec ID : A_DTS
Duration : 2h 27mn
Bit rate mode : Constant
Bit rate : 755 Kbps
Channel(s) : 6 channels
Channel positions : Front: L C R, Side: L R, LFE
Sampling rate : 48.0 KHz
Bit depth : 24 bits
Compression mode : Lossy
Stream size : 796 MiB (6%)
Title : Дубляж
Language : Russian

Audio #2
ID : 3
Format : AC-3
Format/Info : Audio Coding 3
Mode extension : CM (complete main)
Codec ID : A_AC3
Duration : 2h 27mn
Bit rate mode : Constant
Bit rate : 384 Kbps
Channel(s) : 6 channels
Channel positions : Front: L C R, Side: L R, LFE
Sampling rate : 48.0 KHz
Bit depth : 16 bits
Compression mode : Lossy
Stream size : 405 MiB (3%)
Title : Дубляж
Language : Ukrainian

Audio #3
ID : 4
Format : AC-3
Format/Info : Audio Coding 3
Mode extension : CM (complete main)
Codec ID : A_AC3
Duration : 2h 27mn
Bit rate mode : Constant
Bit rate : 640 Kbps
Channel(s) : 6 channels
Channel positions : Front: L C R, Side: L R, LFE
Sampling rate : 48.0 KHz
Bit depth : 16 bits
Compression mode : Lossy
Stream size : 675 MiB (5%)
Language : English

Text
ID : 5
Format : UTF-8
Codec ID : S_TEXT/UTF8
Codec ID/Info : UTF-8 Plain Text
Language : Russian
pb.wtf



Скачать Парфюмер: История одного убийцы через торрент http://i1.imageban.ru/out/2011/07/26/7092170bf708d6258967287a0bd774b9.png Скачать фильм Парфюмер: История одного убийцы через торрент бесплантно в хорошем качестве Описание: Жестокий, никогда не знавший любви, сирота Жан-Батист Гренуй настоящих успехов достиг лишь на одном поприще – среди парфюмеров ... 10 10 5
Info! Золотая раздача, скачанное не засчитывается.
Торрент: Зарегистрирован [2011-07-26 16:54] · скачан: 26 раз
Статус: √ проверено
Размер: 13.48 GB
Как cкачать? Как скачать Парфюмер: История одного убийцы через торрент | qTorrent

% Раздел Тема Автор DL S | L
Ultra HD (UHD: 2K, 4K, 8K) — видео сверхвысокой чёткости [ 57.61 GB ] Парфюмер: история одного убийцы / Perfume: The Story of a Murderer [2006 UHD BDRemux 2160p] DUB +2xAVO bober100 Скачать
1 | 0
Ultra HD (UHD: 2K, 4K, 8K) — видео сверхвысокой чёткости [ 32.52 GB ] Парфюмер: История одного убийцы / Perfume: The Story of a Murderer [2006 UHD WEBRip 2160p] - [] sheker187 Скачать
1 | 0
Фильмы [HD 720p, 1080p] (Хороший звук DUB, MVO) [ 7.95 GB ] Парфюмер: История одного убийцы / Perfume: The Story of a Murderer [2006 BDRip 720p] DUB AVO potroks Скачать
1 | 0
Фильмы [HD 720p, 1080p] (Хороший звук DUB, MVO) [ 4.37 GB ] Парфюмер: История одного убийцы / Perfume: The Story of a Murderer [2006 Германия Испания BDRip 720p от Leonardo] DUB Ворон Скачать
1 | 0
Фильмы 2006-2008 [ 2.36 GB ] Парфюмер: История одного убийцы / Perfume: The Story of a Murderer [2006 HDRip ] Dean24 Скачать
1 | 0
Фильмы (HD 720p, 1080p) (48-60 fps) [ 6.36 GB ] Парфюмер: История одного убийцы / Perfume: The Story of a Murderer [2006 Германия Испания BDRip 720p / 60 FPS ] от R.G. HD-Film СидБот60fps Скачать
1 | 0
Фильмы (HD 720p, 1080p) (48-60 fps) [ 9.07 GB ] Парфюмер: История одного убийцы / Perfume: The Story of a Murderer [2006 Германия Испания BDRip 1080p / 60 FPS ] от R.G. HD-Films СидБот60fps Скачать
1 | 0

28-11-2019 20:33  

Отключить всю рекламу на сайте

26-07-2011 21:38 Парфюмер: История одного убийцы Скачать торрент  

шикарно !!!!!!!! спасибо !!!!!!!!!pb.wtf



26-07-2011 21:43 Парфюмер: История одного убийцы Скачать торрент  

Фильм "Парфюмер: История одного убийцы" — частичка души мирового киноискусства. О нём не забудут, о нём будут говорить, его будут ругать ... советую.pb.wtf



    Дорогой пользователь! Огромная просьба, поблагодарите релизера, оцените раздачу и оставьте свои комментарий, если Вы скачали Парфюмер: История одного убийцы через торрент бесплатно! Внесите свою лепту в развитие PiratBit!
    Комментировать посты могут только пользователи прошедшие не сложную регистрацию
    Показать сообщения:    

    Парфюмер: История одного убийцы через торрент
    Скачать бесплатно Парфюмер: История одного убийцы
    Парфюмер: История одного убийцы скачать торрент
    Парфюмер: История одного убийцы смотреть онлайн
    Cкачать фильм Парфюмер: История одного убийцы бесплатно
    Парфюмер: История одного убийцы скачать торрент в хорошем качестве
    Парфюмер: История одного убийцы смотреть онлайн бесплатно в хорошем качестве


    Вы не можете начинать темы
    Вы не можете отвечать на сообщения
    Вы не можете редактировать свои сообщения
    Вы не можете удалять свои сообщения
    Вы не можете голосовать в опросах
    Вы не можете прикреплять файлы к сообщениям
    Вы можете скачивать файлы