2 сезон

iTunes

1 сезон

1

iTunes

iTunes

iTunes

1 сезон

RePack

30

ИГРА 18+

pack

ВАЖНО

!!Акция!!

Alien_RageХит недели

RePack

MK11
pack

Забери бонус

RePack

jed

!!Акция!!

Alien_Rage

RePack

fifa19

RePack

Assassins Creed: Odyssey

RePack

NEED FOR SPEED™ PAYBACK

4 сезон

9 сезон

Бесстыжие 9 сезон

Все сериалы

все сериалы на PB.wtf

RePack

FAR CRY 5
  

Ирландец / Kill the Irishman (Джонатан Хенсли) [2010 г., боевик, криминал, биография, BDRip 720p] pb.wtf

Ирландец через торрент pb.wtf

Размер: 7.4 GB | Добавлен: 9 лет 3 мес. назад | Торрент скачан:131 раз
Скачать  

27-07-2011 19:48 Ирландец Скачать торрент  

[font="Georgia"]Ирландец
Kill the Irishman




Год выпуска: 2010
Страна: США
Жанр: боевик, криминал, биография
Продолжительность: 01:46:36
Перевод: Профессиональный (многоголосый закадровый) [Лицензия]

Режиссер: Джонатан Хенсли

В ролях: Рэй Стивенсон, Винсент Д’Онофрио, Вэл Килмер, Линда Карделлини, Кристофер Уокен, Тони Дарроу, Роберт Дави, Фионнула Флэнаган, Боб Гантон, Джейсон Батлер Харнер, Винни Джонс

Описание: Крепко "сколоченный" криминальный боевик, снятый в стилистики фильмов 70-х годов (собственно и речь идет о событиях тех, уже далеких лет). Вся фабула фильма основана на жизни и преступной деятельности гангстера Дэнни Грина, по происхождению ирландца. Фильм "биографичен" и следует законам этого жанра, так как повествует о жизни этого знаменитого бандита, в которой нашлось место и мощным подъемам и столь же крупным провалам...

Качество: BDRip 720p
Формат: MKV
Видео кодек: AVC
Аудио кодек: AC3
Видео: AVC, 1280x720 (16/9), 23.976 fps, 8 000 Kbps (0.353 bit/pixel)
Аудио #1: AC-3, 48.0 KHz, 6 ch, 448 Kbps, CBR (Russian)
Аудио #2: DTS, 48.0 KHz, 6 ch, 1 510 Kbps, CBR (English)
Субтитры: Russian, English
Complete name Kill the Irishman 2011 720p BluRay DD5.1-EbP.mkv
Format : Matroska
File size : 7.40 GiB
Duration : 1h 46mn
Overall bit rate : 9 951 Kbps
Movie name : -Talian-
Encoded date : UTC 2011-07-27 04:59:16
Writing application : mkvmerge v3.3.0 ('Language') сборка от May 14 2010 17:11:50
Writing library : libebml v0.8.0 + libmatroska v0.9.0

Video
ID : 1
Format : AVC
Format/Info : Advanced Video Codec
Format profile : High@L4.1
Format settings, CABAC : Yes
Format settings, ReFrames : 9 frames
Codec ID : V_MPEG4/ISO/AVC
Duration : 1h 46mn
Bit rate : 8 000 Kbps
Width : 1 280 pixels
Height : 720 pixels
Display aspect ratio : 16:9
Frame rate : 23.976 fps
Color space : YUV
Chroma subsampling : 4:2:0
Bit depth : 8 bits
Scan type : Progressive
Bits/(Pixel*Frame) : 0.362
Stream size : 5.79 GiB (78%)
Title : Kill the Irishman 2011 720p BluRay DD5.1-EbP
Writing library : x264 core 116 r2019 9cc407d
Encoding settings : cabac=1 / ref=9 / deblock=1:-3:-3 / analyse=0x3:0x133 / me=umh / subme=10 / psy=1 / psy_rd=0.90:0.00 / mixed_ref=1 / me_range=32 / chroma_me=1 / trellis=2 / 8x8dct=1 / cqm=0 / deadzone=21,11 / fast_pskip=0 / chroma_qp_offset=-2 / threads=6 / sliced_threads=0 / nr=0 / decimate=1 / interlaced=0 / bluray_compat=0 / constrained_intra=0 / bframes=7 / b_pyramid=2 / b_adapt=2 / b_bias=0 / direct=3 / weightb=1 / open_gop=0 / weightp=2 / keyint=250 / keyint_min=23 / scenecut=40 / intra_refresh=0 / rc=2pass / mbtree=0 / bitrate=8000 / ratetol=1.0 / qcomp=0.60 / qpmin=0 / qpmax=69 / qpstep=4 / cplxblur=20.0 / qblur=0.5 / ip_ratio=1.40 / pb_ratio=1.30 / aq=1:0.70
Language : English

Audio #1
ID : 2
Format : AC-3
Format/Info : Audio Coding 3
Mode extension : CM (complete main)
Codec ID : A_AC3
Duration : 1h 46mn
Bit rate mode : Constant
Bit rate : 448 Kbps
Channel(s) : 6 channels
Channel positions : Front: L C R, Side: L R, LFE
Sampling rate : 48.0 KHz
Bit depth : 16 bits
Compression mode : Lossy
Delay relative to video : 11s 500ms
Stream size : 341 MiB (5%)
Title : MVO
Language : Russian

Audio #2
ID : 3
Format : DTS
Format/Info : Digital Theater Systems
Codec ID : A_DTS
Duration : 1h 46mn
Bit rate mode : Constant
Bit rate : 1 510 Kbps
Channel(s) : 6 channels
Channel positions : Front: L C R, Side: L R, LFE
Sampling rate : 48.0 KHz
Bit depth : 24 bits
Compression mode : Lossy
Stream size : 1.12 GiB (15%)
Title : Original
Language : English

Text #1
ID : 4
Format : UTF-8
Codec ID : S_TEXT/UTF8
Codec ID/Info : UTF-8 Plain Text
Title : Sub
Language : Russian

Text #2
ID : 5
Format : UTF-8
Codec ID : S_TEXT/UTF8
Codec ID/Info : UTF-8 Plain Text
Title : Sub
Language : English

Menu
00:00:00.000 : en:Main Title/Danny Greene
00:08:24.921 : en:From Worker To President
00:18:34.447 : en:Making A Deal
00:26:06.231 : en:New Line Of Work
00:33:04.232 : en:Trash Collection
00:44:06.978 : en:"You Really Want To Dance With Me?"
00:52:25.809 : en:Kill The Irishman
00:59:30.066 : en:Retribution
01:07:21.996 : en:Joining Forces
01:17:30.604 : en:Moving Up
01:27:40.505 : en:The Ballad Of Danny Greene
01:39:44.145 : en:End Credits
pb.wtf



Скачать Ирландец через торрент http://i3.imageban.ru/out/2011/07/27/7bb7a3c7e9ffeed0ca26ea4d248296dd.png Скачать фильм Ирландец через торрент бесплантно в хорошем качестве Описание: Крепко "сколоченный" криминальный боевик, снятый в стилистики фильмов 70-х годов (собственно и речь идет о событиях тех, уже ... 10 10 2
Info! Золотая раздача, скачанное не засчитывается.
Торрент: Зарегистрирован [2011-07-27 19:48] · скачан: 131 раз
Статус: √ проверено
Размер: 7.4 GB
Как cкачать? Как скачать Ирландец через торрент | qTorrent

% Раздел Тема Автор DL S | L
Фильмы [HD 720p, 1080p] (Хороший звук DUB, MVO) [ 11.5 GB ] Ирландец / Kill the Irishman [2011 BDRip 1080p от _denis_100 / NNNB] MOV + AVO + VO + Original + Sub _denis_100 Скачать
1 | 0
Фильмы [HD 720p, 1080p] (Хороший звук DUB, MVO) [ 6.75 GB ] Ирландец / Kill the Irishman [2011 BDRip 720p от _denis_100 / NNNB] MOV + AVO + VO + Original + Sub _denis_100 Скачать
1 | 0
Фильмы 2011 [ 2.91 GB ] Ирландец / Kill the Irishman [2011 BDRip-AVC от _denis_100 / NNNB] MOV + AVO + Original + Sub _denis_100 Скачать
1 | 0
Фильмы 2010 [ 1.46 GB ] Ирландец / Kill the Irishman [2010 биография BDRip] sergey82 Скачать
1 | 0
Фильмы 2010 [ 1.46 GB ] Ирландец / Kill the Irishman [2010 биография HDRip лицензия] 1.46 GB SD Скачать
1 | 0
Фильмы 2010 [ 2.05 GB ] Ирландец / Kill the Irishman [2010 биография HDRip лицензия] Lil Badun Скачать
1 | 0
Фильмы 2011 [ 5.86 GB ] Ирландец / Kill the Irishman [2010 биография DVD9 лицензия] shuller Скачать
1 | 0

28-11-2019 20:33  

Отключить всю рекламу на сайте

28-07-2011 02:19 Ирландец Скачать торрент  

спасибо!pb.wtf



    Дорогой пользователь! Огромная просьба, поблагодарите релизера, оцените раздачу и оставьте свои комментарий, если Вы скачали Ирландец через торрент бесплатно! Внесите свою лепту в развитие PiratBit!
    Комментировать посты могут только пользователи прошедшие не сложную регистрацию
    Показать сообщения:    

    Ирландец через торрент
    Скачать бесплатно Ирландец
    Ирландец скачать торрент
    Ирландец смотреть онлайн
    Cкачать фильм Ирландец бесплатно
    Ирландец скачать торрент в хорошем качестве
    Ирландец смотреть онлайн бесплатно в хорошем качестве


    Вы не можете начинать темы
    Вы не можете отвечать на сообщения
    Вы не можете редактировать свои сообщения
    Вы не можете удалять свои сообщения
    Вы не можете голосовать в опросах
    Вы не можете прикреплять файлы к сообщениям
    Вы можете скачивать файлы