Всегда рабочее зеркало без VPN и Proxy просто перед .vidak.icu напиши любое слово или цифру, Пример http://b3ia.vidak.icu

MVO

MVO

1 сезон

1

1 сезон

iTunes

1 сезон

13

1 сезон

Deluxe

pack

Рекомендуем

Repack

30

ВАЖНО

RePack

MK11

RePack

jed

RePack

fifa19

RePack

RDR2

RePack

NEED FOR SPEED™ PAYBACK

Кинопоиск HD

6 сезон

 Острые козырьки 6 сезон

Все сериалы

все сериалы на PB.wtf

RePack

FAR CRY 5
  
Magnet ссылка

Бунт пернатых / Plumiferos - Aventuras voladoras (Дэниэл Дефилиппо, Густаво Джаннини) [2010 г., мультфильм, приключения,​ семейный, DVDRip] / лицензия 746 mb pb.wtf

Бунт пернатых через торрент pb.wtf

Размер: 746 MB | Добавлен: 11 лет назад | Торрент скачан:225 раз
Смотреть онлайн Бунт пернатых | Скачать    Ребята, помогите собрать деньги на оплату серверов!!!

28-07-2011 12:30 Бунт пернатых Скачать торрент  



Название: Бунт пернатых
Оригинальное название: Plumíferos - Aventuras voladoras
Год выхода: 2010
Жанр: мультфильм, приключения, семейный
Режиссер: Дэниэл Дефилиппо /Daniel De Felippo/, Густаво Джаннини /Gustavo Giannini/
В ролях: Мариано Мартинез /Mariano Martínez/, Луисана Лопилато /Luisana Lopilato/, Карла Петерсон /Carla Peterson/, Пето Менахем /Peto Menahem/, Луис Мачин /Luis Machín/, Эстебан Проль /Esteban Prol/, Фабио Ди Томасо /Fabio Di Tomaso/

Описание:
Эта увлекательная и полная приключений история происходит с птицами, обитающими в городе. Обычный воробей Хуан вдруг почувствовал себя уникальным и во что бы то ни стало пытается это доказать своим сородичам. А красавица-канарейка Фефи-хочет стать свободной и улетает из клетки, пытаясь начать новую, независимую жизнь. Ведь свобода-это так естественно для птиц!


Страна: Аргентина
Продолжительность: 01:20:01
Перевод: Профессиональный (многоголосый, закадровый) | Лицензия

Файл
Качество: DVDRip
Формат: AVI
Видео кодек: XviD
Аудио кодек: MP3
Видео: XviD, 720x416 (16:9), 25.000 fps, 1 168 Kbps (0.156 bit/pixel)
Звук: MP3 , 48.0 KHz, 2 ch, 128 Kbps, CBR (Russian)
General
Complete name : E:Plumíferos-Aventuras.voladoras_[Rutor.org].avi
Format : AVI
Format/Info : Audio Video Interleave
File size : 746 MiB
Duration : 1h 20mn
Overall bit rate : 1 304 Kbps
Writing application : VirtualDubMod 1.5.4.1 (build 2178/release)
Writing library : VirtualDubMod build 2178/release

Video
ID : 0
Format : MPEG-4 Visual
Format profile : Advanced [email protected]
Format settings, BVOP : 1
Format settings, QPel : No
Format settings, GMC : No warppoints
Format settings, Matrix : Custom
Codec ID : XVID
Codec ID/Hint : XviD
Duration : 1h 20mn
Bit rate : 1 168 Kbps
Width : 720 pixels
Height : 416 pixels
Display aspect ratio : 16:9
Frame rate : 25.000 fps
Color space : YUV
Chroma subsampling : 4:2:0
Bit depth : 8 bits
Scan type : Progressive
Compression mode : Lossy
Bits/(Pixel*Frame) : 0.156
Stream size : 669 MiB (90%)
Writing library : XviD 64

Audio
ID : 1
Format : MPEG Audio
Format version : Version 1
Format profile : Layer 3
Mode : Joint stereo
Codec ID : 55
Codec ID/Hint : MP3
Duration : 1h 20mn
Bit rate mode : Constant
Bit rate : 128 Kbps
Channel(s) : 2 channels
Sampling rate : 48.0 KHz
Compression mode : Lossy
Stream size : 73.3 MiB (10%)
Alignment : Aligned on interleaves
Interleave, duration : 80 ms (2.00 video frames)
Interleave, preload duration : 504 ms
Writing library : LAME3.98r
Encoding settings : -m j -V 4 -q 2 -lowpass 17 -b 128
Language : Russian
pb.wtf



Скачать Бунт пернатых через торрент http://s54.radikal.ru/i146/1107/83/b3ec042cfad5.jpg Скачать, смотреть онлайн Бунт пернатых бесплантно в хорошем качестве Описание: Эта увлекательная и полная приключений история происходит с птицами, обитающими в городе. Обычный воробей Хуан вдруг почувствовал ... 5 10 4
Info! Золотая раздача, скачанное не засчитывается.
Торрент: Зарегистрирован [2011-07-28 12:30] · скачан: 225 раз
Статус: √ проверено
Размер: 746 MB
Как cкачать? Как скачать Бунт пернатых через торрент | UTorrent

28-11-2019 20:33  

Отключить вcю реклaмy на сайте

    Дорогой пользователь! Огромная просьба, поблагодарите релизера, оцените раздачу и оставьте свои комментарий, если Вы скачали Бунт пернатых через торрент бесплатно!
    Комментировать посты могут только пользователи прошедшие не сложную регистрацию
    Показать сообщения:    

    Бунт пернатых через торрент
    Скачать бесплатно Бунт пернатых
    Бунт пернатых скачать торрент
    Бунт пернатых смотреть онлайн
    Cкачать фильм Бунт пернатых бесплатно
    Бунт пернатых скачать торрент в хорошем качестве
    Бунт пернатых смотреть онлайн бесплатно в хорошем качестве


    Вы не можете начинать темы
    Вы не можете отвечать на сообщения
    Вы не можете редактировать свои сообщения
    Вы не можете удалять свои сообщения
    Вы не можете голосовать в опросах
    Вы не можете прикреплять файлы к сообщениям
    Вы можете скачивать файлы