Ссылка на приватное зеркало всего за 1$. Внимание количество ограничено!!!

iTunes

iTunes

iTunes

1

iTunes

iTunes

iTunes

iTunes

iTunes

30
pack

$ от Little Big

ВАЖНО

!!Акция!!

Alien_RageХит недели

RePack

Resident Evil 21

ИГРА 18+

pack

RePack

jed

!!Акция!!

Alien_Rage

RePack

fifa19

RePack

Assassins Creed: Odyssey

RePack

NEED FOR SPEED™ PAYBACK

4 сезон

9 сезон

Бесстыжие 9 сезон

Все сериалы

все сериалы на PB.wtf

RePack

FAR CRY 5
  

Красная Бригада: Наследие / Red Faction: Origins (Майкл Нанкин / Michael Nankin) [2011, США, фантастика, HDTV 1080p] pb.wtf

Красная Бригада: Наследие через торрент pb.wtf

Размер: 9.56 GB | Добавлен: 8 лет 11 мес. назад | Торрент скачан:78 раз
Скачать  

29-07-2011 10:44 Красная Бригада: Наследие Скачать торрент  

Красная Бригада: Наследие / Красная фракция: Происхождение / Red Faction: Origins


Год выпуска: 2011
Страна: США
Жанр: фантастика
Продолжительность: 01:27:47
Перевод №1: Профессиональный (многоголосый закадровый) NewLine.TV
Перевод №2: Любительский (многоголосый закадровый) BaibaKo.tv


Режиссер: Майкл Нанкин
Продюссер: Джеффри Бич, Филлип Дж. Рот
Сценарий: Дэнни Билсон, Пол Де Мео, Эндрю Крейсберг


Премьера в мире: 4 июня 2011


В ролях: Роберт Патрик, Тэмзин Мерчант, Брайан Смит, Даниэль Николет, Кейт Вернон, Девон Грайе, Гарет Дэвид-Ллойд, Ана Мулвой-Тен, Сара Браун, Роджер Эштон-Гриффитс и др.



Прошло двадцать пять лет, с тех пор как Алек Мэйсон вел Марсианские Колонии к свободе… и 12 лет, с тех пор как мстительные враги убили его жену, похитили дочь Лиру и оставили сломленного героя с его горем. Для Джейка Мэйсона, единственного сына Алека и офицера войск Красной Бригады, весь мир вывернут наизнанку, когда он узнаёт, что теперь, спустя 12 лет после похищения, его сестра всё еще жива. Планета полна новым сильным врагом, и Джейк выходит на поиски, только чтобы узнать, что его потерянная сестра ─ одна из них… хладнокровный солдат, поклявшаяся уничтожить Красную Бригаду.




Качество: HDTV 1080p
Формат: MPEG-TS
Видео кодек: MPEG2
Аудио кодек: AC3
Видео: MPEG2, 1920x1080, соотношение сторон [16:9], 0.220 Bits/Pixel, 13.7 Mbps, 29.970 fps
Аудио1: Russian / Novafilm / AC3, 6ch, 48 kH, 384 Kbps
Аудио2: Russian / Baibako / AC3, 6ch, 48 kH, 384 Kbps
Аудио3: English / Original / AC3, 6ch, 48 kH, 384 Kbps
Субтитры: Вшитые английские, немецкие

Формат субтитров: prerendered (Blu-ray/PGS/SUP)


General
ID : 1 (0x1)
Complete name : ...\Red.Faction.Origins.HDTV1080p.2xRus-Eng.Sergey40001.ts
Format : MPEG-TS
File size : 9.56 GiB
Duration : 1h 27mn
Overall bit rate : 15.6 Mbps
Maximum Overall bit rate : 35.5 Mbps

Video
ID : 4113 (0x1011)
Menu ID : 1 (0x1)
Format : MPEG Video
Format version : Version 2
Format profile : Main@High
Format settings, BVOP : Yes
Format settings, Matrix : Default
Format settings, GOP : M=3, N=15
Codec ID : 2
Duration : 1h 27mn
Bit rate mode : Variable
Bit rate : 13.7 Mbps
Nominal bit rate : 18.0 Mbps
Width : 1 920 pixels
Height : 1 080 pixels
Display aspect ratio : 16:9
Frame rate : 29.970 fps
Color space : YUV
Chroma subsampling : 4:2:0
Bit depth : 8 bits
Scan type : Interlaced
Scan order : Top Field First
Compression mode : Lossy
Bits/(Pixel*Frame) : 0.220
Stream size : 8.38 GiB (88%)

Audio #1
ID : 4352 (0x1100)
Menu ID : 1 (0x1)
Format : AC-3
Format/Info : Audio Coding 3
Mode extension : CM (complete main)
Codec ID : 129
Duration : 1h 27mn
Bit rate mode : Constant
Bit rate : 384 Kbps
Channel(s) : 6 channels
Channel positions : Front: L C R, Side: L R, LFE
Sampling rate : 48.0 KHz
Bit depth : 16 bits
Compression mode : Lossy
Stream size : 241 MiB (2%)
Language : Russian

Audio #2
ID : 4353 (0x1101)
Menu ID : 1 (0x1)
Format : AC-3
Format/Info : Audio Coding 3
Mode extension : CM (complete main)
Codec ID : 129
Duration : 1h 27mn
Bit rate mode : Constant
Bit rate : 384 Kbps
Channel(s) : 6 channels
Channel positions : Front: L C R, Side: L R, LFE
Sampling rate : 48.0 KHz
Bit depth : 16 bits
Compression mode : Lossy
Stream size : 241 MiB (2%)
Language : Russian

Audio #3
ID : 4354 (0x1102)
Menu ID : 1 (0x1)
Format : AC-3
Format/Info : Audio Coding 3
Mode extension : CM (complete main)
Codec ID : 129
Duration : 1h 27mn
Bit rate mode : Constant
Bit rate : 384 Kbps
Channel(s) : 6 channels
Channel positions : Front: L C R, Side: L R, LFE
Sampling rate : 48.0 KHz
Bit depth : 16 bits
Compression mode : Lossy
Stream size : 241 MiB (2%)
Language : English

Text #1
ID : 4113 (0x1011)608-1
Menu ID : 1 (0x1)
Format : EIA-608
Muxing mode : A/53 / DTVCC Transport
Muxing mode, more info : Muxed in Video #1
Duration : 1h 27mn
Stream size : 0.00 Byte (0%)

Text #2
ID : 4113 (0x1011)1
Menu ID : 1 (0x1)
Format : EIA-708
Muxing mode : A/53 / DTVCC Transport
Muxing mode, more info : Muxed in Video #1
Duration : 1h 27mn
Stream size : 0.00 Byte (0%)

Text #3
ID : 4608 (0x1200)
Menu ID : 1 (0x1)
Format : PGS
Codec ID : 144
Delay relative to video : 709ms
Language : English

Text #4
ID : 4609 (0x1201)
Menu ID : 1 (0x1)
Format : PGS
Codec ID : 144
Duration : 1h 27mn
Delay relative to video : 1s 635ms
Language : Dutch
скриншот  скриншот  скриншот  скриншот  скриншот  pb.wtf



Скачать Красная Бригада: Наследие через торрент http://i26.fastpic.ru/big/2011/0729/c6/8dd85677beb8cf33352102d6078462c6.jpg Скачать фильм Красная Бригада: Наследие через торрент бесплантно в хорошем качестве В ролях: Роберт Патрик, Тэмзин Мерчант, Брайан Смит, Даниэль Николет, Кейт Вернон, Девон Грайе, Гарет Дэвид-Ллойд, Ана Мулвой-Тен, Сара ... 10 10 2
Info! Золотая раздача, скачанное не засчитывается.
Торрент: Зарегистрирован [2011-07-29 10:44] · скачан: 78 раз
Статус: √ проверено
Размер: 9.56 GB
Как cкачать? Как скачать Красная Бригада: Наследие через торрент | qTorrent

% Раздел Тема Автор DL S | L
Фильмы 2011 [ 1.36 GB ] Красная Бригада: Наследие / Red Faction: Origins [2011 HDTVRip] L_E_X Скачать
1 | 0

28-11-2019 20:33  

Отключить всю рекламу на сайте

29-07-2011 11:24 Красная Бригада: Наследие Скачать торрент  

Прошу прощения модераторы, перекиньте в другой раздел.pb.wtf



29-07-2011 15:09 Красная Бригада: Наследие Скачать торрент  

Спасибо :)pb.wtf



    Дорогой пользователь! Огромная просьба, поблагодарите релизера, оцените раздачу и оставьте свои комментарий, если Вы скачали Красная Бригада: Наследие через торрент бесплатно! Внесите свою лепту в развитие PiratBit!
    Комментировать посты могут только пользователи прошедшие не сложную регистрацию
    Показать сообщения:    

    Красная Бригада: Наследие через торрент
    Скачать бесплатно Красная Бригада: Наследие
    Красная Бригада: Наследие скачать торрент
    Красная Бригада: Наследие смотреть онлайн
    Cкачать фильм Красная Бригада: Наследие бесплатно
    Красная Бригада: Наследие скачать торрент в хорошем качестве
    Красная Бригада: Наследие смотреть онлайн бесплатно в хорошем качестве


    Вы не можете начинать темы
    Вы не можете отвечать на сообщения
    Вы не можете редактировать свои сообщения
    Вы не можете удалять свои сообщения
    Вы не можете голосовать в опросах
    Вы не можете прикреплять файлы к сообщениям
    Вы можете скачивать файлы