1 сезон

1 сезон

iTunes

1

КиноПоиск HD

Кинопоиск HD

iTunes

13

1 сезон

RePack

30

Ultimate

ВАЖНО

ИГРА 18+

pack

RePack

MK11
pack

Легкие деньги

RePack

jed

RePack

fifa19

RePack

RDR2

RePack

NEED FOR SPEED™ PAYBACK

4 сезон

9 сезон

Бесстыжие 9 сезон

Все сериалы

все сериалы на PB.wtf

RePack

FAR CRY 5
  
Magnet ссылка

Нокдаун / Cinderella Man (Рон Ховард / Ron Howard) [2005 г., Драма, биография, спорт, HDRip] pb.wtf

Нокдаун через торрент pb.wtf

Размер: 1.46 GB | Добавлен: 9 лет 8 мес. назад | Торрент скачан:185 раз
Скачать  

30-07-2011 13:15 Нокдаун Скачать торрент  

Нокдаун / Cinderella Man«When America was on its knees, he brought us to our feet.»


Год выпуска: 2005
Страна: США
Жанр: Драма, биография, спорт
Продолжительность: 144 мин
Перевод: Профессиональный (полное дублирование)


Режиссер: Рон Ховард
Продюссер: Брайан Грейзер, Рон Ховард, Пенни Маршалл
Сценарий: Клифф Холлингсворт, Акива Голдсман


бюджет: $88 000 000
Премьера в мире: 23 мая 2005


В ролях: Расселл Кроу /Russell Crowe/, Рене Зеллвегер /Renee Zellweger/, Коннор Прайс /Connor Price/, Ник Смит /Nick Smith/, Мэттью Дж. Тэйлор /Matthew G. Taylor/, Пол Джаматти /Paul Giamatti



Потерпев несколько поражений кряду, подававший надежды боксер-тяжеловес Джим Брэддок вынужден бросить спорт. Во времена Великой депрессии Брэддок берется за любую работу, чтобы прокормить свою жену Мэй и детей. При этом он все еще надеется вернуться на ринг. И однажды ему предоставляется такой шанс. В последнюю минуту он заменяет другого боксера и выходит на поединок с претендентом на титул чемпиона мира.

Ко всеобщему изумлению, Брэддок побеждает уже в третьем раунде. Несмотря на то, что он весит меньше своих соперников и к тому же страдает от многочисленных травм, Джим продолжает драться и выигрывать. Апофеозом же его спортивной карьеры становится поединок с чемпионом мира Максом Баэром, убившим на ринге двух человек…





Качество: HDRip
Формат: AVI
Видео кодек: XviD
Аудио кодек: AC3
Видео: 720x304 (2.37:1), 23.976 fps, XviD build 47 ~1119 kbps avg, 0.20 bit/pixel
Аудио: 48 kHz, AC3 Dolby Digital, 3/2 (L,C,R,l,r) + LFE ch, ~448.00 kbps avg



Общее
Полное имя : D:\торенты\1\Nokdaun_[torrents.ru]_by_Scarabey.avi
Формат : AVI
Формат/Информация : Audio Video Interleave
Размер файла : 1,46 Гбайт
Продолжительность : 2 ч. 24 м.
Общий поток : 1449 Кбит/сек
Программа кодирования : VirtualDubMod 1.5.10.2 (build 2540/release)
Библиотека кодирования : VirtualDubMod build 2540/release

Видео
Идентификатор : 0
Формат : MPEG-4 Visual
Профиль формата : Advanced Simple@L5
Параметр BVOP формата : 1
Параметр QPel формата : Нет
Параметр GMC формата : Без точки перехода
Параметр матрицы формата : Default (MPEG)
Идентификатор кодека : XVID
Идентификатор кодека/Подсказка : XviD
Продолжительность : 2 ч. 24 м.
Битрейт : 992 Кбит/сек
Ширина : 720 пикс.
Высота : 304 пикс.
Соотношение сторон : 2,35:1
Частота кадров : 23,976 кадр/сек
Цветовое пространство : YUV
Подвыборка цветности : 4:2:0
Битовая глубина : 8 бит
Тип развёртки : Прогрессивная
Метод сжатия : С потерями
Бит/(Пиксели*Кадры) : 0.189
Размер потока : 1024 Мбайт (68%)
Библиотека кодирования : XviD 1.2.0.dev47 (UTC 2006-11-01)

Аудио
Идентификатор : 1
Формат : AC-3
Формат/Информация : Audio Coding 3
Расширение режима : CM (complete main)
Идентификатор кодека : 2000
Продолжительность : 2 ч. 24 м.
Вид битрейта : Постоянный
Битрейт : 448 Кбит/сек
Каналы : 6 каналов
Расположение каналов : Front: L C R, Side: L R, LFE
Частота : 48,0 КГц
Битовая глубина : 16 бит
Метод сжатия : С потерями
Размер потока : 463 Мбайт (31%)
Выравнивание : Разделение по промежуткам
Продолжительность промежутка : 42 мс. (1,00 видеокадр)
Время предзагрузки промежутка : 500 ms
скриншот  скриншот  скриншот  скриншот  скриншот  скриншот  pb.wtf



Скачать Нокдаун через торрент http://i25.fastpic.ru/big/2011/0730/f6/7c0c8e3b2c7ea3ccd685fedad44238f6.png Скачать фильм Нокдаун через торрент бесплантно в хорошем качестве В ролях: Расселл Кроу /Russell Crowe/, Рене Зеллвегер /Renee Zellweger/, Коннор Прайс /Connor Price/, Ник Смит /Nick Smith/, Мэттью Дж. ... 10 10 3
Info! Золотая раздача, скачанное не засчитывается.
Торрент: Зарегистрирован [2011-07-30 13:15] · скачан: 185 раз
Статус: √ проверено
Размер: 1.46 GB
Как cкачать? Как скачать Нокдаун через торрент | UTorrent

% Раздел Тема Автор DL S | L
Фильмы [HD 720p, 1080p] (Хороший звук DUB, MVO) [ 22.06 GB ] Нокдаун / Cinderella Man [2005 биография BDRip 1080p] DUB [] +2xAVO+MVO bober100 Скачать
1 | 0
Фильмы [HD 720p, 1080p] (Хороший звук DUB, MVO) [ 19.63 GB ] Нокдаун / Cinderella Man [2005 биография BDRip 1080p - [] Ворон Скачать
1 | 0
Фильмы [HD 720p, 1080p] (Хороший звук DUB, MVO) [ 10.14 GB ] Нокдаун / Cinderella Man [2005 биография BDRip 720p] Dub + DVO + AVO + Subs + MVO Ukr + Original Eng -Lexx- Скачать
1 | 0
Фильмы 2001-2005 [ 2.41 GB ] Нокдаун / Cinderella Man [2005 биография HDRip-AVC] DUB + DVO + Original + Sub -=Cherry=- Скачать
1 | 0
Фильмы 2001-2005 [ 1.46 GB ] Нокдаун / Cinderella Man [2005 биография HDRip] yrgent9032 Скачать
1 | 0

28-11-2019 20:33  

Отключить всю рекламу на сайте

30-07-2011 13:27 Нокдаун Скачать торрент  

Фильм - очень и очень хороший. Добротный такой. Кто не смотрел - обязательно посмотрите - не разочаруетесь!!! :good: :good: :good: :good:pb.wtf



30-07-2011 13:29 Нокдаун Скачать торрент  

antony_k писал(а):

Фильм - очень и очень хороший. Добротный такой. Кто не смотрел - обязательно посмотрите - не разочаруетесь!!! :good: :good: :good: :good:

Ты прав мне тоже очень понравилось не зря входит в 50 лучших фильмов кинопоиска.pb.wtf



30-07-2011 13:36 Нокдаун Скачать торрент  

Фильм супер смотрел много раз, не надоедаетpb.wtf



    Дорогой пользователь! Огромная просьба, поблагодарите релизера, оцените раздачу и оставьте свои комментарий, если Вы скачали Нокдаун через торрент бесплатно! Внесите свою лепту в развитие PiratBit!
    Комментировать посты могут только пользователи прошедшие не сложную регистрацию
    Показать сообщения:    

    Нокдаун через торрент
    Скачать бесплатно Нокдаун
    Нокдаун скачать торрент
    Нокдаун смотреть онлайн
    Cкачать фильм Нокдаун бесплатно
    Нокдаун скачать торрент в хорошем качестве
    Нокдаун смотреть онлайн бесплатно в хорошем качестве


    Вы не можете начинать темы
    Вы не можете отвечать на сообщения
    Вы не можете редактировать свои сообщения
    Вы не можете удалять свои сообщения
    Вы не можете голосовать в опросах
    Вы не можете прикреплять файлы к сообщениям
    Вы можете скачивать файлы