Доктор Стрэндж

Лицензия

Добыча

Дубляж

Уэнсдэй

1 сезон

Тор

Дубляж

В эфире

Дубляж

Там, где раки поют

MVO

Властелин колец

1 сезон

Deluxe

pack

Рекомендуем

30

Пиратка

ВАЖНО

ВАЖНО

Ghostwire

Пиратка

jed

RePack

nioh2

RePack

RDR2

RePack

NEED FOR SPEED™ PAYBACK

RePack

скачать торрент

Кинопоиск HD

Острые козырьки 6 сезон

6 сезон

FAR CRY 6

RePack

скачать торрент

Лицензия

скачать торрент

MVO

1

1 сезон

скачать торрент

1 сезон

скачать торрент

Лицензия

  

Хостел 2 / Hostel: Part II. Unrated Director's Cut (Эли Рот) [2007 г., ужасы, триллер, BDRip 1080р]

Хостел 2 через торрент pb.wtf

Размер: 8.24 GB | Добавлен: 11 лет назад | Торрент скачан:20 раз
Смотреть онлайн | Скачать   

30-07-2011 13:57 Хостел 2 Скачать торрент  

Хостел 2
Hostel: Part II

Unrated Director's Cut




Год выпуска: 2007
Страна: США
Жанр: ужасы, триллер
Продолжительность: 01:34:58
Перевод: Профессиональный (полное дублирование)

Режиссер: Эли Рот

В ролях: Лоурен Герман, Роджер Барт, Хизер Матараццо, Бижу Филлипс, Ричард Берджи, Вера Йорданова, Джей Эрнандез, Джордан Лэдд, Эдвиг Фенеч, Станислав Яневский

Описание: Три девушки-студентки, путешествуя по Европе, решили подольше задержаться в Братиславе (Словакия). Сами того не ведая, они попадают в царство мяса и крови. Ведь одна из здешних гостиниц, в которую приезжают наши героини, таит мрачный секрет — таинственную организацию, которая занимается пытками и убийствами. Сумеют ли девушки выбраться из этого кровавого ада живыми?

Качество: BDRip 1080р
Формат: MKV
Видео кодек: AVC
Аудио кодек: AC3
Видео: AVC, 1920x816 (2.35), 23.976 fps, 10.5 Mbps (0.272 bit/pixel)
Аудио #1: AC-3, 48.0 KHz, 6 ch, 448 Kbps, CBR (Russian)
Аудио #2: DTS, 48.0 KHz, 6 ch, 1 510 Kbps, CBR (English)
Complete name Hostel.Part.II.BDRip.1080p.x264.HANSMER.mkv
Format : Matroska
File size : 8.24 GiB
Duration : 1h 34mn
Overall bit rate : 12.4 Mbps
Movie name : -=HANSMER=-
Encoded date : UTC 2007-11-01 00:23:00
Writing application : mkvmerge v2.0.2 ('You're My Flame') built on Aug 15 2007 20:05:20
Writing library : libebml v0.7.7 + libmatroska v0.8.1

Video
ID : 1
Format : AVC
Format/Info : Advanced Video Codec
Format profile : [email protected]
Format settings, CABAC : Yes
Format settings, ReFrames : 8 frames
Codec ID : V_MPEG4/ISO/AVC
Duration : 1h 34mn
Bit rate : 10.5 Mbps
Width : 1 920 pixels
Height : 816 pixels
Display aspect ratio : 2.35:1
Frame rate : 23.976 fps
Color space : YUV
Chroma subsampling : 4:2:0
Bit depth : 8 bits
Scan type : Progressive
Bits/(Pixel*Frame) : 0.278
Stream size : 6.78 GiB (82%)
Title : 1920x816, x264, ~10460 kbps
Writing library : x264 core 56 svn-680
Encoding settings : cabac=1 / ref=5 / deblock=1:-3:-3 / analyse=0x3:0x133 / me=umh / subme=6 / brdo=1 / mixed_ref=1 / me_range=16 / chroma_me=1 / trellis=0 / 8x8dct=1 / cqm=2 / deadzone=21,11 / chroma_qp_offset=0 / threads=6 / nr=0 / decimate=1 / mbaff=0 / bframes=3 / b_pyramid=1 / b_adapt=1 / b_bias=0 / direct=1 / wpredb=1 / bime=1 / keyint=250 / keyint_min=25 / scenecut=40(pre) / rc=2pass / bitrate=10460 / ratetol=1.0 / rceq='blurCplx^(1-qComp)' / qcomp=0.60 / qpmin=10 / qpmax=51 / qpstep=4 / cplxblur=20.0 / qblur=0.5 / ip_ratio=1.40 / pb_ratio=1.30 / aq=1:0.5:17.0
Language : English

Audio #1
ID : 2
Format : AC-3
Format/Info : Audio Coding 3
Mode extension : CM (complete main)
Codec ID : A_AC3
Duration : 1h 34mn
Bit rate mode : Constant
Bit rate : 448 Kbps
Channel(s) : 6 channels
Channel positions : Front: L C R, Side: L R, LFE
Sampling rate : 48.0 KHz
Bit depth : 16 bits
Compression mode : Lossy
Stream size : 304 MiB (4%)
Title : AC3, 6ch 448kbps
Language : Russian

Audio #2
ID : 3
Format : DTS
Format/Info : Digital Theater Systems
Codec ID : A_DTS
Duration : 1h 34mn
Bit rate mode : Constant
Bit rate : 1 510 Kbps
Channel(s) : 6 channels
Channel positions : Front: L C R, Side: L R, LFE
Sampling rate : 48.0 KHz
Bit depth : 24 bits
Compression mode : Lossy
Stream size : 1.00 GiB (12%)
Title : DTS 5.1, 1536kbps
Language : English



Скачать Хостел 2 через торрент http://s1.directupload.net/images/user/110730/4krijkuh.png Скачать, смотреть онлайн Хостел 2 бесплантно в хорошем качестве Описание: Три девушки-студентки, путешествуя по Европе, решили подольше задержаться в Братиславе (Словакия). Сами того не ведая, они ... 9.5 10 4
Info! Золотая раздача, скачанное не засчитывается.
Торрент: Зарегистрирован [2011-07-30 13:57] · скачан: 20 раз
Статус: √ проверено
Размер: 8.24 GB
Как cкачать? Как скачать Хостел 2 через торрент | UTorrent

% Раздел Тема Автор DL S | L
Фильмы 2006-2008 [ 1.46 GB ] Хостел 2 / Hostel II | | HDTVRip, Пиратка ЕВГЕНИЙ ОЛЕГОВИЧ Скачать
1 | 0

28-11-2019 20:33  


Отключить вcю реклaмy на сайте, в т.ч. и в плеере онлайн просмотра!

30-07-2011 15:37 Хостел 2 Скачать торрент  

мне года 3 назад понравился)



31-07-2011 01:17 Хостел 2 Скачать торрент  

Забавный фильмец , не хуже первой части,



    Дорогой пользователь! Огромная просьба, поблагодарите релизера, оцените раздачу и оставьте свои комментарий, если Вы скачали Хостел 2 через торрент бесплатно!!
    Комментировать посты могут только пользователи прошедшие не сложную регистрацию
    Показать сообщения:    


    Хостел 2 через торрент
    Скачать бесплатно Хостел 2
    Хостел 2 скачать торрент
    Хостел 2 смотреть онлайн
    Cкачать фильм Хостел 2 бесплатно
    Хостел 2 скачать торрент в хорошем качестве
    Хостел 2 смотреть онлайн бесплатно в хорошем качестве
    Вы не можете начинать темы
    Вы не можете отвечать на сообщения
    Вы не можете редактировать свои сообщения
    Вы не можете удалять свои сообщения
    Вы не можете голосовать в опросах
    Вы не можете прикреплять файлы к сообщениям
    Вы можете скачивать файлы
    Хостел 2 / Hostel: Part II. Unrated Director's Cut [2007 г., ужасы, триллер, BDRip 1080р] смотреть онлайн, скачать торрент picoco.icu