Ссылка на приватное зеркало нашего сайта всего за 1$. Внимание количество ограничено!!!

2 сезон

iTunes

1 сезон

1

iTunes

iTunes

iTunes

1 сезон

RePack

30

ИГРА 18+

pack

ВАЖНО

!!Акция!!

Alien_RageХит недели

RePack

MK11
pack

Забери бонус

RePack

jed

!!Акция!!

Alien_Rage

RePack

fifa19

RePack

Assassins Creed: Odyssey

RePack

NEED FOR SPEED™ PAYBACK

4 сезон

9 сезон

Бесстыжие 9 сезон

Все сериалы

все сериалы на PB.wtf

RePack

FAR CRY 5
  

Трансформеры / Transformers (Майкл Бэй) [2007 г., фантастика, боевик, BDRip 1080р] pb.wtf

Трансформеры через торрент pb.wtf

Размер: 18.55 GB | Добавлен: 9 лет 2 мес. назад | Торрент скачан:324 раза
Скачать  

31-07-2011 07:09 Трансформеры Скачать торрент  

Трансформеры
Transformers


«Наш мир. Их война»



Год выпуска: 2007
Страна: США
Жанр: фантастика, боевик
Продолжительность: 02:23:27
Перевод: Профессиональный (полное дублирование)

Режиссер: Майкл Бэй

В ролях: Шайа ЛаБаф, Меган Фокс, Джош Дюамель, Тайриз Гибсон, Рэйчел Тейлор, Энтони Андерсон, Джон Войт, Джон Туртурро, Майкл О’Нил, Кевин Данн

Описание: В течение многих столетий две расы роботов-инопланетян — Автоботы и Десептиконы — вели войну, ставкой в которой была судьба Bселенной. И вот война докатилась до Земли. В то время, когда силы зла ищут ключ к верховной власти, наш последний шанс на спасение находится в руках юного землянина. Единственное, что стоит между несущими зло Десептиконами и высшей властью — это ключ, находящийся в руках простого парнишки.

Обычный подросток, Сэм Уитвикки озабочен повседневными хлопотами — школа, друзья, машины, девочки. Не ведая о том, что он является последним шансом человечества на спасение, Сэм вместе со своей подругой Микаэлой оказывается вовлеченным в противостояние Автоботов и Десептиконов. Только тогда Сэм понимает истинное значение семейного девиза Уитвикки — «без жертв нет победы!»



Качество: BDRip 1080р
Формат: MKV
Видео кодек: AVC
Аудио кодек: AC3
Видео: AVC, 1920x800 (2.400), 23.976 fps, 12.8 Mbps (0.336 bit/pixel)
Аудио #1: AC-3, 48.0 KHz, 6 ch, 640 Kbps, CBR (Russian) Русский дубляж
Аудио #2: AC-3, 48.0 KHz, 6 ch, 384 Kbps, CBR (Ukrainian) Украинский дубляж
Аудио #3: DTS, 48.0 KHz, 6 ch, 1 510 Kbps, CBR (Russian) Русский многоголосый Позитив ММ
Аудио #4: DTS, 48.0 KHz, 6 ch, 1 510 Kbps, CBR (Russian) Русский двухголосый П.Ганц и И.Королёва
Аудио #5: DTS, 48.0 KHz, 6 ch, 1 510 Kbps, CBR Английский
Аудио #6: AC-3 Dolby Digital, 48.0 KHz, 2 ch, 192 Kbps, CBR Английский
Cубтитры 1: Русские (надписи и пр.)
Cубтитры 2: Русские (BD)
Cубтитры 3: Русские (Киномания)
Cубтитры 4: Английские
Чаптеры: есть
Отдельными файлами:
Аудио: AC3 5.1, 48 kHz, 448 kbps /Русский, Многоголосный закадровый (Киномания)/
Аудио: AC3 5.1, 48 kHz, 384 kbps /Русский, Одноголосный закадровый (А.Гаврилов)/
Аудио: AC3 5.1, 48 kHz, 448 kbps /Русский, Одноголосный закадровый (Ю.Живов)/
Complete name Transformers.2007.Blu-ray.1080p.x264-D-Z0N3.Rus.Ukr.Eng.mkv
Format : Matroska
File size : 18.5 GiB
Duration : 2h 23mn
Overall bit rate : 18.5 Mbps
Movie name : HANSMER
Encoded date : UTC 2011-07-29 14:33:54
Writing application : mkvmerge v4.9.1 ('Ich will') сборка от Jul 11 2011 23:53:15
Writing library : libebml v1.2.1 + libmatroska v1.1.1

Video
ID : 1
Format : AVC
Format/Info : Advanced Video Codec
Format profile : High@L4.1
Format settings, CABAC : Yes
Format settings, ReFrames : 5 frames
Format settings, GOP : M=4, N=24
Codec ID : V_MPEG4/ISO/AVC
Duration : 2h 23mn
Bit rate : 12.8 Mbps
Width : 1 920 pixels
Height : 800 pixels
Display aspect ratio : 2.40:1
Frame rate : 23.976 fps
Color space : YUV
Chroma subsampling : 4:2:0
Bit depth : 8 bits
Scan type : Progressive
Bits/(Pixel*Frame) : 0.346
Stream size : 12.4 GiB (67%)
Title : Transformers.2007.1080p.Bluray.DTS.x264-D-Z0N3
Writing library : x264 core 68 r1183M f21daff
Encoding settings : cabac=1 / ref=5 / deblock=1:-2:-2 / analyse=0x3:0x113 / me=umh / subme=9 / psy_rd=0.8:0.7 / mixed_ref=1 / me_range=64 / chroma_me=1 / trellis=2 / 8x8dct=1 / cqm=2 / deadzone=21,11 / chroma_qp_offset=-4 / threads=6 / nr=0 / decimate=0 / mbaff=0 / bframes=3 / b_pyramid=1 / b_adapt=2 / b_bias=0 / direct=3 / wpredb=1 / keyint=250 / keyint_min=25 / scenecut=40 / rc=2pass / bitrate=12759 / ratetol=1.0 / qcomp=0.60 / qpmin=10 / qpmax=51 / qpstep=4 / cplxblur=20.0 / qblur=0.5 / vbv_maxrate=50000 / vbv_bufsize=50000 / ip_ratio=1.40 / pb_ratio=1.30 / aq=1:0.70

Audio #1
ID : 2
Format : AC-3
Format/Info : Audio Coding 3
Mode extension : CM (complete main)
Codec ID : A_AC3
Duration : 2h 23mn
Bit rate mode : Constant
Bit rate : 640 Kbps
Channel(s) : 6 channels
Channel positions : Front: L C R, Side: L R, LFE
Sampling rate : 48.0 KHz
Bit depth : 16 bits
Compression mode : Lossy
Stream size : 657 MiB (3%)
Title : Dub
Language : Russian

Audio #2
ID : 3
Format : AC-3
Format/Info : Audio Coding 3
Mode extension : CM (complete main)
Codec ID : A_AC3
Duration : 2h 23mn
Bit rate mode : Constant
Bit rate : 384 Kbps
Channel(s) : 6 channels
Channel positions : Front: L C R, Side: L R, LFE
Sampling rate : 48.0 KHz
Bit depth : 16 bits
Compression mode : Lossy
Stream size : 394 MiB (2%)
Title : Dub
Language : Ukrainian

Audio #3
ID : 4
Format : DTS
Format/Info : Digital Theater Systems
Codec ID : A_DTS
Duration : 2h 23mn
Bit rate mode : Constant
Bit rate : 1 510 Kbps
Channel(s) : 6 channels
Channel positions : Front: L C R, Side: L R, LFE
Sampling rate : 48.0 KHz
Bit depth : 24 bits
Compression mode : Lossy
Stream size : 1.51 GiB (8%)
Title : Pozitiv
Language : Russian

Audio #4
ID : 5
Format : DTS
Format/Info : Digital Theater Systems
Codec ID : A_DTS
Duration : 2h 23mn
Bit rate mode : Constant
Bit rate : 1 510 Kbps
Channel(s) : 6 channels
Channel positions : Front: L C R, Side: L R, LFE
Sampling rate : 48.0 KHz
Bit depth : 24 bits
Compression mode : Lossy
Stream size : 1.51 GiB (8%)
Title : Glanz & Koroleva
Language : Russian

Audio #5
ID : 6
Format : DTS
Format/Info : Digital Theater Systems
Codec ID : A_DTS
Duration : 2h 23mn
Bit rate mode : Constant
Bit rate : 1 510 Kbps
Channel(s) : 6 channels
Channel positions : Front: L C R, Side: L R, LFE
Sampling rate : 48.0 KHz
Bit depth : 24 bits
Compression mode : Lossy
Stream size : 1.51 GiB (8%)
Language : English

Audio #6
ID : 7
Format : AC-3
Format/Info : Audio Coding 3
Format profile : Dolby Digital
Mode extension : CM (complete main)
Codec ID : A_AC3
Duration : 2h 23mn
Bit rate mode : Constant
Bit rate : 192 Kbps
Channel(s) : 2 channels
Channel positions : Front: L R
Sampling rate : 48.0 KHz
Bit depth : 16 bits
Compression mode : Lossy
Stream size : 197 MiB (1%)
Title : Commentary
Language : English

Text #1
ID : 8
Format : UTF-8
Codec ID : S_TEXT/UTF8
Codec ID/Info : UTF-8 Plain Text
Title : Forced
Language : Russian

Text #2
ID : 9
Format : UTF-8
Codec ID : S_TEXT/UTF8
Codec ID/Info : UTF-8 Plain Text
Title : BD
Language : Russian

Text #3
ID : 10
Format : UTF-8
Codec ID : S_TEXT/UTF8
Codec ID/Info : UTF-8 Plain Text
Title : Kinomanija
Language : Russian

Text #4
ID : 11
Format : UTF-8
Codec ID : S_TEXT/UTF8
Codec ID/Info : UTF-8 Plain Text
Language : English

Menu
00:00:00.000 : ru:Вступительные титры
00:02:04.708 : ru:Катар - неопознанный борт
00:08:54.534 : ru:Капитан Уитвики
00:15:33.641 : ru:Вражеский сигнал
00:22:21.382 : ru:Сэм и Микаэла
00:27:42.661 : ru:Борт №1
00:33:25.378 : ru:Живая машина Сэма
00:38:58.002 : ru:Новая атака десептиконов
00:45:13.920 : ru:Глен расшифровывает сигнал
00:51:46.437 : ru:Схватка Бамбли и десептикона
00:58:44.688 : ru:Прибытие автоботов
01:06:48.421 : ru:Новые факты
01:11:53.559 : ru:Очки Уитвики
01:16:56.445 : ru:"Сектор 7" действует
01:23:37.346 : ru:Побег Сэма и Микаэлы
01:29:04.172 : ru:Раскрытие секретных данных
01:36:28.741 : ru:Мегатрон
01:43:58.107 : ru:"Куб - главная цель"
01:49:45.746 : ru:В погоне за "Искрой"
01:56:54.007 : ru:Бойня в городе
02:03:09.882 : ru:Работа в команде
02:10:43.919 : ru:Новые друзья
02:15:02.303 : ru:Финальные титры
pb.wtf



Скачать Трансформеры через торрент http://img52.imageshack.us/img52/3629/74828005.png Скачать фильм Трансформеры через торрент бесплантно в хорошем качестве Описание: В течение многих столетий две расы роботов-инопланетян — Автоботы и Десептиконы — вели войну, ставкой в которой была судьба ... 10 10 2
Info! Золотая раздача, скачанное не засчитывается.
Торрент: Зарегистрирован [2011-07-31 07:09] · скачан: 324 раз
Статус: √ проверено
Размер: 18.55 GB
Как cкачать? Как скачать Трансформеры через торрент | qTorrent

% Раздел Тема Автор DL S | L
Сборники и Сиквелы (48-60 fps) [ 15.78 GB ] Трансформеры: Квадрология / Transformers: Quadrilogy [2007-2014 BDRip-AVC 60fps IMAX ] от R.G. HD-Films Tiberiumsun69 Скачать
1 | 0
Ultra HD (UHD: 2K, 4K, 8K) — видео сверхвысокой чёткости [ 82.97 GB ] Трансформеры: Последний рыцарь / Transformers: The Last Knight [2017 UHD BDRemux 2160p] AVO [А. Гаврилов] +DUB [] bober100 Скачать
1 | 0
Фильмы [HD 720p, 1080p] (Хороший звук DUB, MVO) [ 11.2 GB ] Трансформеры: Эпоха истребления / Transformers: Age of Extinction [2014 BDRip-HEVC 1080p ] DUB [] bober100 Скачать
2 | 0
Ultra HD (UHD: 2K, 4K, 8K) — видео сверхвысокой чёткости [ 96.34 GB ] Трансформеры / Transformers [2007 UHD BDRemux 2160p] DUB + DVO + MVO + 2xAVO [HDR + Dolby Vision] sheker187 Скачать
1 | 0
Ultra HD (UHD: 2K, 4K, 8K) — видео сверхвысокой чёткости [ 85.7 GB ] Трансформеры: Последний рыцарь / Transformers: The Last Knight [2017 UHD BDRemux EUR 2160p] DUB [Dolby Vision] [] bober100 Скачать
1 | 0
Ultra HD (UHD: 2K, 4K, 8K) — видео сверхвысокой чёткости [ 92.24 GB ] Трансформеры: Последний рыцарь / Transformers: The Last Knight [2017 UHD Blu-ray EUR 2160p] [Dolby Vision] sheker187 Скачать
1 | 0
Ultra HD (UHD: 2K, 4K, 8K) — видео сверхвысокой чёткости [ 89.42 GB ] Трансформеры: Эпоха истребления / Transformers: Age of Extinction [2014 UHD Blu-ray 2160p] DUB [rus ukr] [Сustom] sheker187 Скачать
1 | 0

28-11-2019 20:33  

Отключить всю рекламу на сайте

29-09-2011 13:59 Трансформеры Скачать торрент  

Народ вот фигня у меня картинка идет медленнее. Что за фигня проверьте.pb.wtf



    Дорогой пользователь! Огромная просьба, поблагодарите релизера, оцените раздачу и оставьте свои комментарий, если Вы скачали Трансформеры через торрент бесплатно! Внесите свою лепту в развитие PiratBit!
    Комментировать посты могут только пользователи прошедшие не сложную регистрацию
    Показать сообщения:    

    Трансформеры через торрент
    Скачать бесплатно Трансформеры
    Трансформеры скачать торрент
    Трансформеры смотреть онлайн
    Cкачать фильм Трансформеры бесплатно
    Трансформеры скачать торрент в хорошем качестве
    Трансформеры смотреть онлайн бесплатно в хорошем качестве


    Вы не можете начинать темы
    Вы не можете отвечать на сообщения
    Вы не можете редактировать свои сообщения
    Вы не можете удалять свои сообщения
    Вы не можете голосовать в опросах
    Вы не можете прикреплять файлы к сообщениям
    Вы можете скачивать файлы