Ссылка на приватное зеркало нашего сайта всего за 1$. Внимание количество ограничено!!!

2 сезон

iTunes

1 сезон

1

iTunes

iTunes

iTunes

1 сезон

RePack

30

ИГРА 18+

pack

ВАЖНО

!!Акция!!

Alien_RageХит недели

RePack

MK11
pack

Забери бонус

RePack

jed

!!Акция!!

Alien_Rage

RePack

fifa19

RePack

Assassins Creed: Odyssey

RePack

NEED FOR SPEED™ PAYBACK

4 сезон

9 сезон

Бесстыжие 9 сезон

Все сериалы

все сериалы на PB.wtf

RePack

FAR CRY 5
  

Мой брат, Брюс Ли / Bruce Lee,My Brother (Раймонд Йип и Манфред Вонг) [2010, Биография, Драма, HDRip] pb.wtf

Мой брат, Брюс Ли через торрент pb.wtf

Размер: 2.03 GB | Добавлен: 9 лет 2 мес. назад | Торрент скачан:89 раз
Скачать  

31-07-2011 12:24 Мой брат, Брюс Ли Скачать торрент  

Мой брат, Брюс Ли / Bruce Lee, My Brother


Год выпуска: 2010
Страна: Гонконг, Китай
Жанр: Биография, Драма
Продолжительность: 02:09:38.797
Перевод: Авторский (одноголосый закадровый) @PD
Cубтитры: русские


Режиссер: Манфред Вонг, Вэй мэн Йип
Продюссер: Ли Чен, Джон Чонг, Манфред Вонг
Сценарий: Манфред Вонг


бюджет: $7 300 000
Премьера в мире: 25 ноября 2010


В ролях: Аариф Ли, Тони Люн Ка Фай, Кристи Чунг, Джин Онг, Мишель Йе, Кар Лок Чин, Кристи Янг



Это ранее еще нерасказанная история из жизни Брюса Ли, которая охватывает не только личный мир будущего кумира, но и практически всех членов его большой и дружной семьи. Фильм освещает периоды жизни с момента его рождения, детство, отрочество, первую съемку в кино и первую влюбленность всем известного мастера восточных единоборств. Здесь вы увидите Брюса Ли в несколько ином облике — простым и скромным мальчиком, очкариком, который не только стремился к избранной им цели, но и делал все для её воплощения в жизнь. В кино — это первая экранизация жизни семьи Брюса Ли, основанная на документальных материалах.




Качество: HDRip
Формат: AVI
Видео кодек: XviD
Аудио кодек: AC3
Видео: 720x304 (2.37:1), 24.000 fps, XviD build 50 ~1406 kbps avg, 0.27 bit/pixel
Аудио 1: AC3 6 channels 448 Kbps 48.0 KHz
Аудио 2: AC3 6 channels 384 Kbps 48.0 KHz



General
Complete name : Мой брат Брюс Ли (2010).avi
Format : AVI
Format/Info : Audio Video Interleave
Format profile : OpenDML
File size : 2.03 GiB
Duration : 2h 9mn
Overall bit rate : 2 245 Kbps
Writing application : VirtualDubMod 1.5.10.2 (build 2540/release)
Writing library : VirtualDubMod build 2540/release

Video
ID : 0
Format : MPEG-4 Visual
Format profile : Advanced Simple@L5
Format settings, BVOP : Yes
Format settings, QPel : No
Format settings, GMC : No warppoints
Format settings, Matrix : Default (MPEG)
Codec ID : XVID
Codec ID/Hint : XviD
Duration : 2h 9mn
Bit rate : 1 394 Kbps
Width : 720 pixels
Height : 304 pixels
Display aspect ratio : 2.35:1
Frame rate : 24.000 fps
Color space : YUV
Chroma subsampling : 4:2:0
Bit depth : 8 bits
Scan type : Progressive
Bits/(Pixel*Frame) : 0.265
Stream size : 1.26 GiB (62%)
Writing library : XviD 1.2.1 (UTC 2008-12-04)

Audio #1
ID : 1
Format : AC-3
Format/Info : Audio Coding 3
Mode extension : CM (complete main)
Codec ID : 2000
Duration : 2h 9mn
Bit rate mode : Constant
Bit rate : 448 Kbps
Channel(s) : 6 channels
Channel positions : Front: L C R, Side: L R, LFE
Sampling rate : 48.0 KHz
Bit depth : 16 bits
Stream size : 415 MiB (20%)
Alignment : Split accross interleaves
Interleave, duration : 42 ms (1.00 video frame)
Interleave, preload duration : 500 ms

Audio #2
ID : 2
Format : AC-3
Format/Info : Audio Coding 3
Mode extension : CM (complete main)
Codec ID : 2000
Duration : 2h 9mn
Bit rate mode : Constant
Bit rate : 384 Kbps
Channel(s) : 6 channels
Channel positions : Front: L C R, Side: L R, LFE
Sampling rate : 48.0 KHz
Bit depth : 16 bits
Stream size : 356 MiB (17%)
Alignment : Split accross interleaves
Interleave, duration : 42 ms (1.00 video frame)
Interleave, preload duration : 500 ms
скриншот  скриншот  скриншот  скриншот  pb.wtf



Скачать Мой брат, Брюс Ли через торрент http://i25.fastpic.ru/big/2011/0731/87/04fcb0252f74235088c4bceabf634487.png Скачать фильм Мой брат, Брюс Ли через торрент бесплантно в хорошем качестве В ролях: Аариф Ли, Тони Люн Ка Фай, Кристи Чунг, Джин Онг, Мишель Йе, Кар Лок Чин, Кристи Янг Это ранее еще нерасказанная история из жизни ... 10 10 1
Info! Золотая раздача, скачанное не засчитывается.
Торрент: Зарегистрирован [2011-07-31 12:24] · скачан: 89 раз
Статус: √ проверено
Размер: 2.03 GB
Как cкачать? Как скачать Мой брат, Брюс Ли через торрент | qTorrent

% Раздел Тема Автор DL S | L
Фильмы [HD 720p, 1080p] (Хороший звук DUB, MVO) [ 12.26 GB ] Брюс Ли мой брат / Bruce Lee My Brother [2010 биография BDRip ] shuller Скачать
1 | 0

28-11-2019 20:33  

Отключить всю рекламу на сайте

31-07-2011 12:46 Мой брат, Брюс Ли Скачать торрент  

более похожего актёра не смогли найти видимоpb.wtf



    Дорогой пользователь! Огромная просьба, поблагодарите релизера, оцените раздачу и оставьте свои комментарий, если Вы скачали Мой брат, Брюс Ли через торрент бесплатно! Внесите свою лепту в развитие PiratBit!
    Комментировать посты могут только пользователи прошедшие не сложную регистрацию
    Показать сообщения:    

    Мой брат, Брюс Ли через торрент
    Скачать бесплатно Мой брат, Брюс Ли
    Мой брат, Брюс Ли скачать торрент
    Мой брат, Брюс Ли смотреть онлайн
    Cкачать фильм Мой брат, Брюс Ли бесплатно
    Мой брат, Брюс Ли скачать торрент в хорошем качестве
    Мой брат, Брюс Ли смотреть онлайн бесплатно в хорошем качестве


    Вы не можете начинать темы
    Вы не можете отвечать на сообщения
    Вы не можете редактировать свои сообщения
    Вы не можете удалять свои сообщения
    Вы не можете голосовать в опросах
    Вы не можете прикреплять файлы к сообщениям
    Вы можете скачивать файлы