1 сезон

1 сезон

iTunes

1

КиноПоиск HD

Кинопоиск HD

iTunes

13

1 сезон

RePack

30

Ultimate

ВАЖНО

ИГРА 18+

pack

RePack

MK11
pack

Легкие деньги

RePack

jed

RePack

fifa19

RePack

RDR2

RePack

NEED FOR SPEED™ PAYBACK

4 сезон

9 сезон

Бесстыжие 9 сезон

Все сериалы

все сериалы на PB.wtf

RePack

FAR CRY 5
  
Magnet ссылка

Гарвардский Бомж / Homeless to Harvard: The Liz Murray Story (Питер Левин / Peter Levin) [2003 г., драма, биография, DVDRip] pb.wtf

Гарвардский Бомж через торрент pb.wtf

Размер: 1.34 GB | Добавлен: 9 лет 8 мес. назад | Торрент скачан:69 раз
Скачать  

31-07-2011 13:10 Гарвардский Бомж Скачать торрент  

Гарвардский Бомж / Homeless to Harvard: The Liz Murray Story
«When there was nothing to believe in, she believed in herself.»


Год выпуска: 2003
Страна: США
Жанр: Биография, Драма
Продолжительность: 01:30:59.167
Перевод: Профессиональный (многоголосый, закадровый)


Режиссер: Питер Левин
Продюссер: Майкл Махони, Барнет Бэйн, Стивен Дьютч
Сценарий: Ронни Керн


Премьера в мире: 7 апреля 2003


В ролях: Тора Бёрч, Майкл Райли, Макила Смит, Келли Линч, Эллен Пейдж, Брайан Джемисон, Роберт Бокстэл, Арон Тэйджер, Маргарит МаНил, Эмбер Годфри, Симус Моррисон, Джон Фултон, Сесил Райт, Дэб Аллен



Выросшая в семье родителей-наркоманов Лиз Муррей жила в нищете, пока её мать не умерла от СПИДа. Девочка проводила время на улице и была вынуждена сама о себе заботиться. Бездомная девушка не только выжила, но и добилась победы, поступив в Гарвардский университет. Такова эта история, основанная на реальных событиях.




Качество: DVDRip
Формат: AVI
Видео кодек: XviD
Аудио кодек: MP3
Видео: 640x480 (1:33:1), 23.976 fps, XviD MPEG-4 ~ 2115 kbps avg, 0.268 bit/pixel
Аудио : 48000 kHz, MPEG Layer 3, 2 ch, 128.00 kbps

Общее
Полное имя : D:\торенты\1\Гарвардский Бомж.avi
Формат : AVI
Формат/Информация : Audio Video Interleave
Размер файла : 1,34 Гбайт
Продолжительность : 1 ч. 30 м.
Общий поток : 2115 Кбит/сек
Библиотека кодирования : Boilsoft Joiner build 2411/release

Видео
Идентификатор : 0
Формат : MPEG-4 Visual
Профиль формата : Advanced Simple@L5
Параметр BVOP формата : 1
Параметр QPel формата : Нет
Параметр GMC формата : Без точки перехода
Параметр матрицы формата : Выборочная
Идентификатор кодека : XVID
Идентификатор кодека/Подсказка : XviD
Продолжительность : 1 ч. 30 м.
Битрейт : 1978 Кбит/сек
Ширина : 640 пикс.
Высота : 480 пикс.
Соотношение сторон : 4:3
Частота кадров : 23,976 кадр/сек
Частота кадров в оригинале : 25,000 кадр/сек
Цветовое пространство : YUV
Подвыборка цветности : 4:2:0
Битовая глубина : 8 бит
Тип развёртки : Прогрессивная
Метод сжатия : С потерями
Бит/(Пиксели*Кадры) : 0.268
Размер потока : 1,26 Гбайт (94%)
Библиотека кодирования : XviD 1.2.0.dev47 (UTC 2006-11-01)

Аудио
Идентификатор : 1
Формат : MPEG Audio
Версия формата : Version 1
Профиль формата : Layer 3
Режим : Joint stereo
Идентификатор кодека : 55
Идентификатор кодека/Подсказка : MP3
Продолжительность : 1 ч. 30 м.
Вид битрейта : Постоянный
Битрейт : 128 Кбит/сек
Каналы : 2 канала
Частота : 48,0 КГц
Метод сжатия : С потерями
Размер потока : 83,3 Мбайт (6%)
Выравнивание : Разделение по промежуткам
Продолжительность промежутка : 42 мс. (1,00 видеокадр)
Время предзагрузки промежутка : 500 ms
Библиотека кодирования : LAME3.98.2
скриншот  скриншот  скриншот  скриншот  скриншот  pb.wtf



Скачать Гарвардский Бомж через торрент http://i26.fastpic.ru/big/2011/0731/ba/92a7b75e63785012f23e3cc0983fb2ba.jpg Скачать фильм Гарвардский Бомж через торрент бесплантно в хорошем качестве В ролях: Тора Бёрч, Майкл Райли, Макила Смит, Келли Линч, Эллен Пейдж, Брайан Джемисон, Роберт Бокстэл, Арон Тэйджер, Маргарит МаНил, Эмбер ... 5 10 3
Info! Золотая раздача, скачанное не засчитывается.
Торрент: Зарегистрирован [2011-07-31 13:10] · скачан: 69 раз
Статус: √ проверено
Размер: 1.34 GB
Как cкачать? Как скачать Гарвардский Бомж через торрент | UTorrent

28-11-2019 20:33  

Отключить всю рекламу на сайте

    Дорогой пользователь! Огромная просьба, поблагодарите релизера, оцените раздачу и оставьте свои комментарий, если Вы скачали Гарвардский Бомж через торрент бесплатно! Внесите свою лепту в развитие PiratBit!
    Комментировать посты могут только пользователи прошедшие не сложную регистрацию
    Показать сообщения:    

    Гарвардский Бомж через торрент
    Скачать бесплатно Гарвардский Бомж
    Гарвардский Бомж скачать торрент
    Гарвардский Бомж смотреть онлайн
    Cкачать фильм Гарвардский Бомж бесплатно
    Гарвардский Бомж скачать торрент в хорошем качестве
    Гарвардский Бомж смотреть онлайн бесплатно в хорошем качестве


    Вы не можете начинать темы
    Вы не можете отвечать на сообщения
    Вы не можете редактировать свои сообщения
    Вы не можете удалять свои сообщения
    Вы не можете голосовать в опросах
    Вы не можете прикреплять файлы к сообщениям
    Вы можете скачивать файлы