Ссылка на приватное зеркало нашего сайта всего за 1$. Внимание количество ограничено!!!

2 сезон

iTunes

1 сезон

1

iTunes

iTunes

iTunes

1 сезон

RePack

30

ИГРА 18+

pack

ВАЖНО

!!Акция!!

Alien_RageХит недели

RePack

MK11
pack

Забери бонус

RePack

jed

!!Акция!!

Alien_Rage

RePack

fifa19

RePack

Assassins Creed: Odyssey

RePack

NEED FOR SPEED™ PAYBACK

4 сезон

9 сезон

Бесстыжие 9 сезон

Все сериалы

все сериалы на PB.wtf

RePack

FAR CRY 5
  

Паранойя / Disturbia (Ди Джей Карузо) [2007 г., триллер, драма, BDRip 1080р] pb.wtf

Паранойя через торрент pb.wtf

Размер: 9.3 GB | Добавлен: 9 лет 2 мес. назад | Торрент скачан:125 раз
Скачать  

31-07-2011 13:15 Паранойя Скачать торрент  

Паранойя
Disturbia


«Каждый маньяк - это чей-то сосед»



Год выпуска: 2007
Страна: США
Жанр: триллер, драма
Продолжительность: 01:44:36
Перевод: Профессиональный (полное дублирование)

Режиссер: Ди Джей Карузо

В ролях: Шайа ЛаБаф, Сара Ремер, Кэрри-Энн Мосс, Дэвид Морс

Описание: До автокатастрофы, в которой погиб его отец, жизнь Кейла и его семьи была пригородным раем: счастливая семья, живущая в прекрасном двухэтажном доме на лоне природы. Однако после гибели отца жизнь изменилась. Да еще когда один из школьных учителей Кейла позволит себе бестактную шутку по поводу отца, Кейл ответит ему так, что окажется в суде.

Его приговаривают к домашнему аресту: он должен носить на ноге браслет, который сигнализирует полиции, если он отойдет от дома дальше, чем на тридцать метров. Теперь он сходит с ума в собственном доме, пока его мама пытается свести концы с концами, работая почти круглосуточно.

Окна его дома становятся его миром. Он не хочет разбираться со своими чувствами, потому что это для него слишком болезненно. Так он начинает смотреть по сторонам, изучать боль и трагедии других людей, формирование и распад их взаимоотношений. И в процессе этого он находит человека, которого он считает убийцей.



Качество: BDRip 1080р
Формат: MKV
Видео кодек: AVC
Аудио кодек: DTS
Видео: AVC, 1920x1080 (16/9), 23.976 fps, 10.5 Mbps (0.205 bit/pixel)
Аудио #1: DTS, 48.0 KHz, 6 ch, 755 Kbps, CBR (Russian)
Аудио #2: DTS ES, 48.0 KHz, 7 ch, 1 510 Kbps, CBR (English)
Complete name Disturbia.BDRip.1080p.mkv
Format : Matroska
File size : 9.30 GiB
Duration : 1h 44mn
Overall bit rate : 12.7 Mbps
Encoded date : UTC 2007-09-01 11:20:38
Writing application : mkvmerge v2.0.2 ('You're My Flame') built on Aug 15 2007 20:05:20
Writing library : libebml v0.7.7 + libmatroska v0.8.1

Video
ID : 1
Format : AVC
Format/Info : Advanced Video Codec
Format profile : High@L5.1
Format settings, CABAC : Yes
Format settings, ReFrames : 8 frames
Codec ID : V_MPEG4/ISO/AVC
Duration : 1h 44mn
Bit rate : 10.5 Mbps
Width : 1 920 pixels
Height : 1 080 pixels
Display aspect ratio : 16:9
Frame rate : 23.976 fps
Color space : YUV
Chroma subsampling : 4:2:0
Bit depth : 8 bits
Scan type : Progressive
Bits/(Pixel*Frame) : 0.210
Stream size : 7.46 GiB (80%)
Title : 1920x1080p, x264 (HDTracker.ru)
Writing library : x264 core 56 svn-667C
Encoding settings : cabac=1 / ref=5 / deblock=1:-3:-3 / analyse=0x3:0x133 / me=umh / subme=7 / brdo=1 / mixed_ref=1 / me_range=16 / chroma_me=1 / trellis=1 / 8x8dct=1 / cqm=2 / deadzone=21,11 / chroma_qp_offset=0 / threads=3 / nr=0 / decimate=1 / mbaff=0 / bframes=3 / b_pyramid=1 / b_adapt=1 / b_bias=0 / direct=1 / wpredb=1 / bime=1 / keyint=250 / keyint_min=25 / scenecut=40(pre) / rc=2pass / bitrate=10465 / ratetol=1.0 / rceq='blurCplx^(1-qComp)' / qcomp=0.60 / qpmin=10 / qpmax=51 / qpstep=4 / cplxblur=20.0 / qblur=0.5 / ip_ratio=1.40 / pb_ratio=1.30 / aq=1:0.3:15.0
Language : English

Audio #1
ID : 2
Format : DTS
Format/Info : Digital Theater Systems
Codec ID : A_DTS
Duration : 1h 44mn
Bit rate mode : Constant
Bit rate : 755 Kbps
Channel(s) : 6 channels
Channel positions : Front: L C R, Side: L R, LFE
Sampling rate : 48.0 KHz
Bit depth : 24 bits
Compression mode : Lossy
Stream size : 565 MiB (6%)
Title : DTS 5.1, 768kbps
Language : Russian

Audio #2
ID : 3
Format : DTS
Format/Info : Digital Theater Systems
Format profile : ES
Codec ID : A_DTS
Duration : 1h 44mn
Bit rate mode : Constant
Bit rate : 1 510 Kbps
Channel(s) : 7 channels / 6 channels
Channel positions : Front: L C R, Side: L R, Back: C, LFE / Front: L C R, Side: L R, LFE
Sampling rate : 48.0 KHz
Bit depth : 24 bits
Compression mode : Lossy
Stream size : 1.10 GiB (12%)
Title : DTS-ES 6.1, 1536 kbps
Language : English
pb.wtf



Скачать Паранойя через торрент http://pic.kartinco.top/images/6/4mrn8.jpg Скачать фильм Паранойя через торрент бесплантно в хорошем качестве Описание: До автокатастрофы, в которой погиб его отец, жизнь Кейла и его семьи была пригородным раем: счастливая семья, живущая в ... 10 10 1
Info! Золотая раздача, скачанное не засчитывается.
Торрент: Зарегистрирован [2011-07-31 13:15] · скачан: 125 раз
Статус: √ проверено
Размер: 9.3 GB
Как cкачать? Как скачать Паранойя через торрент | qTorrent

% Раздел Тема Автор DL S | L
Фильмы [HD 720p, 1080p] (Хороший звук DUB, MVO) [ 14.98 GB ] Паранойя / Disturbia [2007 BDRip 1080p by msltel] DUB MVO AVO msltel Скачать
1 | 0
Фильмы [HD 720p, 1080p] (Хороший звук DUB, MVO) [ 5.81 GB ] Паранойя / Disturbia [2007 BDRip 720p by msltel] DUB MVO AVO msltel Скачать
1 | 0
Фильмы 2006-2008 [ 3.37 GB ] Паранойя / Disturbia [2007 BDRip AVC by msltel] DUB MVO AVO msltel Скачать
1 | 0
Фильмы 2006-2008 [ 1.37 GB ] Паранойя / Disturbia [2007 DVDRip лицензия] Mladenec Скачать
1 | 1
Фильмы 2006-2008 [ 2.79 GB ] Паранойя / Disturbia [2007 BDRip DUB многоголосый одноголосый] / Hi10P jb_alex Скачать
1 | 1
Фильмы 2006-2008 [ 742 MB ] Паранойя / Disturbia [2007 HDRip DUB ] Vampir7 Скачать
1 | 0
Фильмы [HD 720p, 1080p] (Хороший звук DUB, MVO) [ 6.4 GB ] Паранойя / Disturbia [2007 BDRip 720p] diletant Скачать
1 | 0

28-11-2019 20:33  

Отключить всю рекламу на сайте

31-07-2011 14:04 Паранойя Скачать торрент  

Это ШЕДЕВР! Мой самый любимый фильм!pb.wtf



04-06-2013 00:45 Паранойя Скачать торрент  

+pb.wtf



    Дорогой пользователь! Огромная просьба, поблагодарите релизера, оцените раздачу и оставьте свои комментарий, если Вы скачали Паранойя через торрент бесплатно! Внесите свою лепту в развитие PiratBit!
    Комментировать посты могут только пользователи прошедшие не сложную регистрацию
    Показать сообщения:    

    Паранойя через торрент
    Скачать бесплатно Паранойя
    Паранойя скачать торрент
    Паранойя смотреть онлайн
    Cкачать фильм Паранойя бесплатно
    Паранойя скачать торрент в хорошем качестве
    Паранойя смотреть онлайн бесплатно в хорошем качестве


    Вы не можете начинать темы
    Вы не можете отвечать на сообщения
    Вы не можете редактировать свои сообщения
    Вы не можете удалять свои сообщения
    Вы не можете голосовать в опросах
    Вы не можете прикреплять файлы к сообщениям
    Вы можете скачивать файлы