2 сезон

iTunes

MVO

1

2 сезон

iTunes

iTunes

1 сезон

RePack

30

Ultimate

ВАЖНО

ИГРА 18+

pack

RePack

MK11
pack

Легкие деньги

RePack

jed

RePack

fifa19

RePack

RDR2

RePack

NEED FOR SPEED™ PAYBACK

4 сезон

9 сезон

Бесстыжие 9 сезон

Все сериалы

все сериалы на PB.wtf

RePack

FAR CRY 5

Anonymous, добрый день, мы не успеваем собрать деньги на оплату серверов за декабрь и январь, помогите нам пожалуйста в это трудное время. В качестве благодарности мы отключим Вам всю рекламу на сайте (укажите свой ник в строку Ваше имя)!

×
  
Magnet ссылка

Обитель зла 4: Жизнь после смерти 3Д / Resident Evil: Afterlife 3D (Пол У. С. Андерсон) 2010 г., BDrip 720p, med'gold, OverUnder pb.wtf

Обитель зла 4: Жизнь после смерти 3Д через торрент pb.wtf

Размер: 4.15 GB | Добавлен: 9 лет 5 мес. назад | Торрент скачан:1000 раз
Скачать  

01-08-2011 08:38 Обитель зла 4: Жизнь после смерти 3Д Скачать торрент  

Обитель зла 4: Жизнь после смерти 3D / Resident Evil: Afterlife 3D

Год выпуска: 2010
Страна: Германия, Франция, Великобритания
Жанр: ужасы, фантастика, боевик, приключения
Продолжительность: 1 ч. 36 м.
Перевод: Профессиональный (полное дублирование) [Лицензия]

Режиссер: Пол У. С. Андерсон
Продюссер: Пол У. С. Андерсон, Джереми Болт, Дон Кармоди
Сценарий: Пол У. С. Андерсон

Бюджет: $60 000 000

R
-Лицам до 17 лет обязательно присутствие взрослого
Мировой рейтинг IMDB 5.90 (44 385)


В ролях: Милла Йовович, Эли Лартер, Ким Коутс, Шоун Робертс, Серджо Перис-Менчета, Спенсер Лок, Борис Коджо, Вентворт Миллер, Сиенна Гиллори, Кейси Барнфи

Описание: Элис продолжает свой путь в мире, поражённом вирусной инфекцией, превращающей людей в нежить. Героиня ищет оставшихся в живых, чтобы вывести их в безопасное место. Её смертельная битва с корпорацией Амбрелла выходит на новый уровень…когда она вдруг получает неожиданную помощь от старого друга. Он обещает привести Элис в безопасную зону в Лос-Анджелесе, но как только они попадают в город, то видят тысячи и тысячи заражённых и оказываются в смертельной ловушке

Доп. информация: Формат 3d: OverUnder (Вертикальная стереопара )

Качество: BDRip
Формат: MKV
Видео кодек: MPEG4-AVC
Аудио кодек: AC3
Видео: 1280 x 1066 / 5567 Kbps / 23.976 fps / High@L4.0
Аудио: AC3 / 5.1 / 48 kHz / 448 kbps; Front: L C R, Side: L R, LFE
[Общее
Уникальный идентификатор : 195012983695982497368199927617644537385 (0x92B6226D927C66ABB3518186E8DE2629)
Полное имя : Resident Evil 3D.mkv
Формат : Matroska
Версия формата : Version 2
Размер файла : 4,15 Гбайт
Продолжительность : 1 ч. 36 м.
Общий поток : 6137 Кбит/сек
Дата кодирования : UTC 2010-11-29 08:45:46
Программа кодирования : mkvmerge v3.4.0 ('Rapunzel') сборка от May 15 2010 09:38:20
Библиотека кодирования : libebml v0.8.0 + libmatroska v0.9.0

Видео
Идентификатор : 1
Формат : AVC
Формат/Информация : Advanced Video Codec
Профиль формата : High@L4.0
Параметр CABAC формата : Да
Параметр ReFrames формата : 4 кадра
Идентификатор кодека : V_MPEG4/ISO/AVC
Продолжительность : 1 ч. 36 м.
Битрейт : 5567 Кбит/сек
Ширина : 1280 пикс.
Высота : 1066 пикс.
Соотношение сторон : 1,201
Частота кадров : 23,976 кадр/сек
Цветовое пространство : YUV
Подвыборка цветности : 4:2:0
Битовая глубина : 8 бит
Тип развёртки : Прогрессивная
Бит/(Пиксели*Кадры) : 0.170
Размер потока : 3,77 Гбайт (91%)
Библиотека кодирования : x264 core 108 r1788 c764e29
Настройки программы : cabac=1 / ref=4 / deblock=1:-2:-2 / analyse=0x3:0x113 / me=umh / subme=7 / psy=1 / psy_rd=1.00:0.00 / mixed_ref=1 / me_range=16 / chroma_me=1 / trellis=2 / 8x8dct=1 / cqm=0 / deadzone=21,11 / fast_pskip=1 / chroma_qp_offset=-3 / threads=6 / sliced_threads=0 / nr=0 / decimate=1 / interlaced=0 / constrained_intra=0 / bframes=6 / b_pyramid=0 / b_adapt=2 / b_bias=0 / direct=3 / weightb=1 / open_gop=0 / weightp=2 / keyint=250 / keyint_min=23 / scenecut=40 / intra_refresh=0 / rc_lookahead=40 / rc=crf / mbtree=1 / crf=18.0 / qcomp=0.60 / qpmin=10 / qpmax=51 / qpstep=4 / ip_ratio=1.40 / aq=1:1.00
Язык : English

Аудио
Идентификатор : 2
Формат : AC-3
Формат/Информация : Audio Coding 3
Расширение режима : CM (complete main)
Идентификатор кодека : A_AC3
Продолжительность : 1 ч. 36 м.
Вид битрейта : Постоянный
Битрейт : 448 Кбит/сек
Каналы : 6 каналов
Расположение каналов : Front: L C R, Side: L R, LFE
Частота : 48,0 КГц
Битовая глубина : 16 бит
Метод сжатия : С потерями
Размер потока : 310 Мбайт (7%)]



pb.wtf



Скачать Обитель зла 4: Жизнь после смерти 3Д через торрент http://i25.fastpic.ru/big/2011/0801/c7/8eaf8e08102730c1f12ce537a9ca07c7.jpeg Скачать фильм Обитель зла 4: Жизнь после смерти 3Д через торрент бесплантно в хорошем качестве Описание: Элис продолжает свой путь в мире, поражённом вирусной инфекцией, превращающей людей в нежить. Героиня ищет оставшихся в живых, ... 10 10 2
Info! Золотая раздача, скачанное не засчитывается.
Торрент: Зарегистрирован [2011-08-01 08:38] · скачан: 1 000 раз
Статус: √ проверено
Размер: 4.15 GB
Как cкачать? Как скачать Обитель зла 4: Жизнь после смерти 3Д через торрент | UTorrent

28-11-2019 20:33  

Отключить всю рекламу на сайте

12-12-2011 13:35 Обитель зла 4: Жизнь после смерти 3Д Скачать торрент  

Качество отличное, но как смотреть если фильм разделён на 2 части? И с верху и с права показывается одно и тоже. это бредpb.wtf



12-12-2011 14:32 Обитель зла 4: Жизнь после смерти 3Д Скачать торрент  

Формат 3d: OverUnder (Вертикальная стереопара )
На компьютере:
1) Запускаем видео через Stereoscopic Player (Файл/Открыть файл...) или любой другой плеер со словом "Stereo";
2) В появившемся окне "Формат входного видео" выбираем "Вертикальная пара, Правый ракурс первый" (или Файл/Расположение);
3) Вид/Метод просмотра/формат ваших очков (например, красно-синий анаглиф - Anaglyph/Color Anaglyph Красно - Голубой);
4) Надеваем соответствующие очки и смотрим.
При наличии комплекта 3D-Vision, аналогично запускаем видео через стереоскопик или через Nvidia 3D Player - разницы нет, так как оболочка одна и та же.

На 3D-телевизоре:
1) Берём обыкновенную флэшку и скидываем на неё файл с видео;
2) Втыкаем её в USB-разъём 3D-телевизора;
3) Выбираем видео, в меню настраиваем режим 3D, надеваем очки и смотрим.

Вопрос: Стереоскопик показывает черный экран - что делать?
Ответ: На любые подобные вопросы всегда один простой ответ. Обновить кодеки. Например, установить K-Lite Codec Pack 7.0.0 (Full). Т.е. чем новее, тем лучше.pb.wtf



24-12-2011 16:56 Обитель зла 4: Жизнь после смерти 3Д Скачать торрент  

при вертикальной стереопаре изображение получается не навесь экран и вытянутое , а при горизонтальной нормальное, что надо сделать ?pb.wtf



25-12-2011 07:12 Обитель зла 4: Жизнь после смерти 3Д Скачать торрент  

3d супер но с изображением косякpb.wtf



11-04-2012 12:27 Обитель зла 4: Жизнь после смерти 3Д Скачать торрент  

нужно включить 3d режым и картинка 1-на на весь екран на-3d телеке такpb.wtf



16-11-2012 13:22 Обитель зла 4: Жизнь после смерти 3Д Скачать торрент  

all36 писал(а):

при вертикальной стереопаре изображение получается не навесь экран и вытянутое , а при горизонтальной нормальное, что надо сделать ?

на 3D телевизоре:
если просматривать с помощью кодеков типа КМР и им подобных, то в режиме Пауза в настройках: Масштабирование_Выбрать любой(4:3, 16:9 без разницы)_Дождаться смены изображения и вновь зайдя в Масштабирование выбрать Действие отсутствует.
Должно помочь.
А вообще, рекомендую пользоваться спец программами для просмотра, к примеру "CyberLink PowerDVD" , начиная с версии 10 там есть поддержка 3D фильмов.pb.wtf



    Дорогой пользователь! Огромная просьба, поблагодарите релизера, оцените раздачу и оставьте свои комментарий, если Вы скачали Обитель зла 4: Жизнь после смерти 3Д через торрент бесплатно! Внесите свою лепту в развитие PiratBit!
    Комментировать посты могут только пользователи прошедшие не сложную регистрацию
    Показать сообщения:    

    Обитель зла 4: Жизнь после смерти 3Д через торрент
    Скачать бесплатно Обитель зла 4: Жизнь после смерти 3Д
    Обитель зла 4: Жизнь после смерти 3Д скачать торрент
    Обитель зла 4: Жизнь после смерти 3Д смотреть онлайн
    Cкачать фильм Обитель зла 4: Жизнь после смерти 3Д бесплатно
    Обитель зла 4: Жизнь после смерти 3Д скачать торрент в хорошем качестве
    Обитель зла 4: Жизнь после смерти 3Д смотреть онлайн бесплатно в хорошем качестве


    Вы не можете начинать темы
    Вы не можете отвечать на сообщения
    Вы не можете редактировать свои сообщения
    Вы не можете удалять свои сообщения
    Вы не можете голосовать в опросах
    Вы не можете прикреплять файлы к сообщениям
    Вы можете скачивать файлы