Ссылка на приватное зеркало нашего сайта всего за 1$. Внимание количество ограничено!!!

2 сезон

iTunes

1 сезон

1

iTunes

iTunes

iTunes

1 сезон

RePack

30

ИГРА 18+

pack

ВАЖНО

!!Акция!!

Alien_RageХит недели

RePack

MK11
pack

Забери бонус

RePack

jed

!!Акция!!

Alien_Rage

RePack

fifa19

RePack

Assassins Creed: Odyssey

RePack

NEED FOR SPEED™ PAYBACK

4 сезон

9 сезон

Бесстыжие 9 сезон

Все сериалы

все сериалы на PB.wtf

RePack

FAR CRY 5
  

Это безумный, безумный, безумный, безумный мир / It's a Mad Mad Mad Mad World (Стэнли Крамер) [1963 г., боевик, комедия, криминал, приключения, BDRip (720p), лицензия] pb.wtf

Это безумный, безумный, безумный, безумный мир через торрент pb.wtf

Размер: 7.95 GB | Добавлен: 9 лет 2 мес. назад | Торрент скачан:183 раза
Скачать  

01-08-2011 17:35 Это безумный, безумный, безумный, безумный мир Скачать торрент  

Это безумный, безумный, безумный, безумный мир / It's a Mad Mad Mad Mad World

Год выпуска: 1963
Страна: США
Жанр: боевик, комедия, криминал, приключения
Продолжительность: 02:39:29
Перевод: Профессиональный (многоголосый, закадровый) (DVD Magic) + Профессиональный (двухголосый, закадровый) (НТВ+) + Профессиональный (многоголосый, закадровый) (SomeWax) + Профессиональный (одноголосый, закадровый) (Совимортфильм А. Карапетян) + Оригинальная (английский)
Субтитры: нет

Режиссер: Стэнли Крамер
Сценарий: Уильям Роуз, Таня Роуз

Бюджет: $9 400 000
Премьера в мире: 7 ноября 1963


Мировой рейтинг IMD: 7.4/10 7.4/10 (15,923 votes)
Рейтинг G - Нет возрастных ограничений

В ролях: Спенсер Трэйси, Милтон Берл, Сид Сизар, Бадди Хэкетт, Этель Мерман, Микки Руни, Дик Шоун, Фил Силверс, Терри-Томас, Джонатан Уинтерс

Описание: По дороге в Лас-Вегас мчатся автомобили. В первом едет бизнесмен с женой и тещей. Во втором — дантист с супругой. В третьем — парочка приятелей. Они не знакомы друг с другом и вряд ли когда-нибудь встретились бы.

Все они становятся свидетелями аварии. А единственный пострадавший перед смертью открывает тайну: под Большим W он спрятал клад. И вот путешественники превращаются в пиратов. Они наперегонки несутся за сокровищами, пытаясь по дороге посильней испортить жизнь конкурентам…

Доп. информация: Один из лидеров западного кино в СССР, бессмертная классика голливудской комедии, фильм, породивший десятки известнейших римейков («Невероятные приключения итальянцев в России», «Крысиные бега»). Премия «Оскар» за Лучшие звуковые эффекты, 1964г.

Качество: BDRip (720p)
Формат: MKV
Видео кодек: H.26x
Аудио кодек: AC3
Видео: 1280x464, 23.976 fps, 5597 kbps avg, 0.393 bit/pixel
Аудио#1:: Русский, AC3 5.1, 48kHz, 384.00 kbps Многоголосый закадровый (DVD Magic)
Аудио#2:: Русский, AC3 2.0, 48kHz, 192.00 kbps Двухголосый закадровый (НТВ+)
Аудио#3:: Русский, AC3 5.1, 48kHz, 384.00 kbps Многоголосый закадровый (SomeWax)
Аудио#4:: Русский, AC3 1.0, 48kHz, 192.00 kbps Одноголосый закадровый (Совимортфильм А. Карапетян)
Аудио#5:: Английский, AC3 5.1, 48kHz, 384.00 kbps Оригинал

&
Полное имя : D:\Documents\It's a Mad Mad Mad Mad World.1963.BDRip.720p.mkv
Формат : Matroska
Размер файла : 7,95 Гбайт
Продолжительность : 2 ч. 39 м.
Общий поток : 7136 Кбит/сек
Дата кодирования : UTC 2011-07-20 05:32:32
Программа кодирования : mkvmerge v4.8.0 ('I Got The...') сборка от May 24 2011 03:12:58
Библиотека кодирования : libebml v1.2.0 + libmatroska v1.1.0

Видео
Идентификатор : 1
Формат : AVC
Формат/Информация : Advanced Video Codec
Профиль формата : High@L4.1
Параметр CABAC формата : Да
Параметр ReFrames формата : 4 кадра
Параметры GOP формата : M=4, N=32
Идентификатор кодека : V_MPEG4/ISO/AVC
Продолжительность : 2 ч. 39 м.
Битрейт : 5597 Кбит/сек
Ширина : 1280 пикс.
Высота : 464 пикс.
Соотношение сторон : 2,759
Частота кадров : 23,976 кадр/сек
Цветовое пространство : YUV
Подвыборка цветности : 4:2:0
Битовая глубина : 8 бит
Тип развёртки : Прогрессивная
Бит/(Пиксели*Кадры) : 0.393
Размер потока : 6,08 Гбайт (76%)
Библиотека кодирования : x264 core 115 r1995 c1e60b9
Настройки программы : cabac=1 / ref=3 / deblock=1:-3:-3 / analyse=0x3:0x113 / me=hex / subme=9 / psy=1 / psy_rd=1.00:0.00 / mixed_ref=1 / me_range=16 / chroma_me=1 / trellis=1 / 8x8dct=1 / cqm=0 / deadzone=21,11 / fast_pskip=1 / chroma_qp_offset=-2 / threads=3 / sliced_threads=0 / nr=0 / decimate=1 / interlaced=0 / bluray_compat=0 / constrained_intra=0 / bframes=3 / b_pyramid=2 / b_adapt=1 / b_bias=0 / direct=1 / weightb=1 / open_gop=0 / weightp=2 / keyint=250 / keyint_min=23 / scenecut=40 / intra_refresh=0 / rc_lookahead=40 / rc=2pass / mbtree=1 / bitrate=5597 / ratetol=1.0 / qcomp=0.60 / qpmin=0 / qpmax=69 / qpstep=4 / cplxblur=20.0 / qblur=0.5 / ip_ratio=1.40 / aq=1:1.00

Аудио #1
Идентификатор : 2
Формат : AC-3
Формат/Информация : Audio Coding 3
Расширение режима : CM (complete main)
Идентификатор кодека : A_AC3
Продолжительность : 2 ч. 39 м.
Вид битрейта : Постоянный
Битрейт : 384 Кбит/сек
Каналы : 6 каналов
Расположение каналов : Front: L C R, Side: L R, LFE
Частота : 48,0 КГц
Битовая глубина : 16 бит
Метод сжатия : С потерями
Размер потока : 438 Мбайт (5%)
Заголовок : Многоголосый закадровый < DVD Magic>
Язык : Russian

Аудио #2
Идентификатор : 3
Формат : AC-3
Формат/Информация : Audio Coding 3
Расширение режима : CM (complete main)
Идентификатор кодека : A_AC3
Продолжительность : 2 ч. 39 м.
Вид битрейта : Постоянный
Битрейт : 192 Кбит/сек
Каналы : 2 канала
Расположение каналов : Front: L R
Частота : 48,0 КГц
Битовая глубина : 16 бит
Метод сжатия : С потерями
Размер потока : 219 Мбайт (3%)
Заголовок : Двухголосый закадровый < НТВ+>
Язык : Russian

Аудио #3
Идентификатор : 4
Формат : AC-3
Формат/Информация : Audio Coding 3
Расширение режима : CM (complete main)
Идентификатор кодека : A_AC3
Продолжительность : 2 ч. 39 м.
Вид битрейта : Постоянный
Битрейт : 384 Кбит/сек
Каналы : 6 каналов
Расположение каналов : Front: L C R, Side: L R, LFE
Частота : 48,0 КГц
Битовая глубина : 16 бит
Метод сжатия : С потерями
Размер потока : 438 Мбайт (5%)
Заголовок : Многоголосый закадровый < SomeWax>
Язык : Russian

Аудио #4
Идентификатор : 5
Формат : AC-3
Формат/Информация : Audio Coding 3
Расширение режима : CM (complete main)
Идентификатор кодека : A_AC3
Продолжительность : 2 ч. 39 м.
Вид битрейта : Постоянный
Битрейт : 192 Кбит/сек
Каналы : 1 канал
Расположение каналов : Front: C
Частота : 48,0 КГц
Битовая глубина : 16 бит
Метод сжатия : С потерями
Размер потока : 219 Мбайт (3%)
Заголовок : Одноголосый закадровый < Совимортфильм А. Карапетян>

Аудио #5
Идентификатор : 6
Формат : AC-3
Формат/Информация : Audio Coding 3
Расширение режима : CM (complete main)
Идентификатор кодека : A_AC3
Продолжительность : 2 ч. 39 м.
Вид битрейта : Постоянный
Битрейт : 384 Кбит/сек
Каналы : 6 каналов
Расположение каналов : Front: L C R, Side: L R, LFE
Частота : 48,0 КГц
Битовая глубина : 16 бит
Метод сжатия : С потерями
Размер потока : 438 Мбайт (5%)
Заголовок : Оригинал
Язык : English
pb.wtf



Скачать Это безумный, безумный, безумный, безумный мир через торрент http://i26.fastpic.ru/big/2011/0801/1d/72b3cade50acec13a086140864e08c1d.png Скачать фильм Это безумный, безумный, безумный, безумный мир через торрент бесплантно в хорошем качестве Описание: По дороге в Лас-Вегас мчатся автомобили. В первом едет бизнесмен с женой и тещей. Во втором — дантист с супругой. В третьем — ... 10 10 1
Info! Золотая раздача, скачанное не засчитывается.
Торрент: Зарегистрирован [2011-08-01 17:35] · скачан: 183 раз
Статус: √ проверено
Размер: 7.95 GB
Как cкачать? Как скачать Это безумный, безумный, безумный, безумный мир через торрент | qTorrent



Последний раз редактировалось: rulya74 (2011-08-02 14:50), всего редактировалось 1 раз

28-11-2019 20:33  

Отключить всю рекламу на сайте

01-08-2011 18:22 Это безумный, безумный, безумный, безумный мир Скачать торрент  

А фильмец то суперский.Я его смотрел,современным фильмам до него расти и расти. pb.wtf



01-08-2011 20:38 Это безумный, безумный, безумный, безумный мир Скачать торрент  

согласен с предыдушим оратором,кино хоть и древнее,но раньше тоже умели снимать..зачёт.


pb.wtf



02-08-2011 02:29 Это безумный, безумный, безумный, безумный мир Скачать торрент  

!!!!!!!!!!!!! превосходно!!!!!!!!!pb.wtf



    Дорогой пользователь! Огромная просьба, поблагодарите релизера, оцените раздачу и оставьте свои комментарий, если Вы скачали Это безумный, безумный, безумный, безумный мир через торрент бесплатно! Внесите свою лепту в развитие PiratBit!
    Комментировать посты могут только пользователи прошедшие не сложную регистрацию
    Показать сообщения:    

    Это безумный, безумный, безумный, безумный мир через торрент
    Скачать бесплатно Это безумный, безумный, безумный, безумный мир
    Это безумный, безумный, безумный, безумный мир скачать торрент
    Это безумный, безумный, безумный, безумный мир смотреть онлайн
    Cкачать фильм Это безумный, безумный, безумный, безумный мир бесплатно
    Это безумный, безумный, безумный, безумный мир скачать торрент в хорошем качестве
    Это безумный, безумный, безумный, безумный мир смотреть онлайн бесплатно в хорошем качестве


    Вы не можете начинать темы
    Вы не можете отвечать на сообщения
    Вы не можете редактировать свои сообщения
    Вы не можете удалять свои сообщения
    Вы не можете голосовать в опросах
    Вы не можете прикреплять файлы к сообщениям
    Вы можете скачивать файлы