Присоединяйтесь к нам в Telegram!, здесь всегда актуальный адрес сайта, оперативная поддержка и многое другое!!

>

5.9

iTunes

7.4

iTunes

9.4

1 сезон

1

7.4

2 сезон

7.2

iTunes

7.3

1 сезон

13

6.1

iTunes

8.3

GOG

30

ULTIMATE

pack

9.9

Лицензия

ВАЖНО

ИГРА 18+

pack

7.3

RePack

MK11

7.7

RePack

jed

7.8

RePack

fifa19

8.5

RePack

RDR2

RePack

NEED FOR SPEED™ PAYBACK

5 сезон

9 сезон

Бесстыжие 9 сезон

Все сериалы

все сериалы на PB.wtf

RePack

FAR CRY 5

Anonymous, доброе утро, мы катастрофически не успеваем собрать деньги на оплату серверов, помогите нам пожалуйста 5,10,15р., для нас важна любая помощь . В качестве благодарности мы отключим Вам всю рекламу на сайте (укажите свой ник в строку Ваше имя)!

×
  
Magnet ссылка

30 клипов HD (2010) / "I Want my" [2010 г., клипы, HDRip] pb.wtf

30 клипов HD через торрент pb.wtf

Размер: 11.92 GB | Добавлен: 10 лет назад | Торрент скачан:493 раза
Смотреть онлайн 30 клипов HD | Скачать    Ребята, помогите собрать деньги на оплату серверов!!!

01-08-2011 18:48 30 клипов HD Скачать торрент  

30 клипов HD (2010) / "I Want my"

Год выпуска: 2010
Страна: Россия
Жанр: клипы
Продолжительность: 01:57:33
Перевод: Не требуется



1)50 Cent Ft. Lloyd Banks, Fat Joe, T.I. - Club Love (1080p)
2)BAZUKA-Ostansya (1080p)
3)Cascada - Night Nurse (1080p)
4)Cheryl Cole - Parachute (1080p)
5)Ciara_-_Speechless (1080p)
6)Dan_Balan_-_Justify_Sex (1080p)
7)Eric_Pridz_-_Pjanoo_HD (1080p)
8)Rihanna - Umbrella (1080p)
9)Inna - Sun Is Up (1080p)
10)JIN _Angels_ Official Music Video (1080p)
11)Justin Bieber - Love Me (1080p)
12)Katy Perry - Firework (1080p)
13)Keri Hilson - Breaking Point (1080p)
14)Kylie_Minogue_-_Get_Outta_My_Way (1080p)
15)Ludacris ft. Trey Songz - Sex Room (1080p)
16)N-Dubz - Girls (1080p)
17)Nelly Furtado - Fuerte (1080p)
18)Ne-Yo - Beautiful Monster (1080p)
19)Ne-Yo - Champagne Life (1080p)
20)Ne-Yo - One In A Million (1080p)
21)Nicole_Scherzinger_-_Poison_(1080p)
22)Platnum - Love Shy (1080p)
23)Potap-A_more_penitsa (1080p)
24)Serge Devant - Ghost (1080p)
25)shakira ft. dizzee rascal-loca (1080p)
26)Tiesto - In the Dark (1080p)
27)Tiesto presents Alone In The Dark_ Inferno - Edward Carnby (1080p)
28)Tiesto_-_Speed_Rail (1080p)
29)Will.I.Am_ft._Nicki_Minaj_-_Check_It_Out (1080p)
30)Willow Smith - Whip My Hair (1080p)
Качество: HDRip
Формат: MPEG-4
Видео кодек:AVC
Аудио кодек: AAC LC
Видео: Video : AVC at 14,9 Мбит/сек Aspect : 1920 x 1080 (1.778) at 25.000 fps
Аудио: Audio : AAC at 192 Кбит/сек Infos : 2 канала, 44,1 КГц Language : en
Общее
Полное имя : D:\Клипы\30 клипов HD (2010) HDRip 1080p\Cheryl Cole - Parachute (1080p).mp4
Формат : MPEG-4
Профиль формата : Base Media / Version 2
Идентификатор кодека : mp42
Размер файла : 412 Мбайт
Продолжительность : 3 м. 43 с.
Общий поток : 15,5 Мбит/сек
Дата кодирования : UTC 2011-08-01 11:23:27
Дата пометки : UTC 2011-08-01 12:11:28

Видео
Идентификатор : 1
Формат : AVC
Формат/Информация : Advanced Video Codec
Профиль формата : High@L4.1
Параметр CABAC формата : Да
Параметр ReFrames формата : 1 кадр
Параметры GOP формата : M=1, N=25
Идентификатор кодека : avc1
Идентификатор кодека/Информация : Advanced Video Coding
Продолжительность : 3 м. 43 с.
Вид битрейта : Переменный
Битрейт : 15,3 Мбит/сек
Ширина : 1920 пикс.
Высота : 1080 пикс.
Соотношение сторон : 16:9
Режим частоты кадров : Постоянный
Частота кадров : 25,000 кадр/сек
Цветовое пространство : YUV
Подвыборка цветности : 4:2:0
Битовая глубина : 8 бит
Тип развёртки : Прогрессивная
Бит/(Пиксели*Кадры) : 0.295
Размер потока : 407 Мбайт (99%)
Язык : English
Дата кодирования : UTC 2011-08-01 11:23:27
Дата пометки : UTC 2011-08-01 12:11:28

Аудио
Идентификатор : 2
Формат : AAC
Формат/Информация : Advanced Audio Codec
Профиль формата : LC
Идентификатор кодека : 40
Продолжительность : 3 м. 43 с.
Вид битрейта : Постоянный
Битрейт : 192 Кбит/сек
Каналы : 2 канала
Расположение каналов : Front: L R
Частота : 44,1 КГц
Метод сжатия : С потерями
Размер потока : 5,10 Мбайт (1%)
Язык : English
Дата кодирования : UTC 2011-08-01 11:23:27
Дата пометки : UTC 2011-08-01 12:11:27

Общее
Полное имя : D:\Клипы\30 клипов HD (2010) HDRip 1080p\Ciara_-_Speechless (1080p).mp4
Формат : MPEG-4
Профиль формата : Base Media / Version 2
Идентификатор кодека : mp42
Размер файла : 314 Мбайт
Продолжительность : 4 м. 9 с.
Общий поток : 10,5 Мбит/сек
Дата кодирования : UTC 2011-08-01 12:04:41
Дата пометки : UTC 2011-08-01 12:48:34

Видео
Идентификатор : 1
Формат : AVC
Формат/Информация : Advanced Video Codec
Профиль формата : High@L4.1
Параметр CABAC формата : Да
Параметр ReFrames формата : 1 кадр
Параметры GOP формата : M=1, N=25
Идентификатор кодека : avc1
Идентификатор кодека/Информация : Advanced Video Coding
Продолжительность : 4 м. 9 с.
Вид битрейта : Переменный
Битрейт : 10,4 Мбит/сек
Ширина : 1920 пикс.
Высота : 1080 пикс.
Соотношение сторон : 16:9
Режим частоты кадров : Постоянный
Частота кадров : 25,000 кадр/сек
Цветовое пространство : YUV
Подвыборка цветности : 4:2:0
Битовая глубина : 8 бит
Тип развёртки : Прогрессивная
Бит/(Пиксели*Кадры) : 0.200
Размер потока : 308 Мбайт (98%)
Язык : English
Дата кодирования : UTC 2011-08-01 12:04:41
Дата пометки : UTC 2011-08-01 12:48:34

Аудио
Идентификатор : 2
Формат : AAC
Формат/Информация : Advanced Audio Codec
Профиль формата : LC
Идентификатор кодека : 40
Продолжительность : 4 м. 9 с.
Вид битрейта : Постоянный
Битрейт : 192 Кбит/сек
Каналы : 2 канала
Расположение каналов : Front: L R
Частота : 44,1 КГц
Метод сжатия : С потерями
Размер потока : 5,69 Мбайт (2%)
Язык : English
Дата кодирования : UTC 2011-08-01 12:04:41
Дата пометки : UTC 2011-08-01 12:48:34

Общее
Полное имя : D:\Клипы\30 клипов HD (2010) HDRip 1080p\Dan_Balan_-_Justify_Sex (1080p).mp4
Формат : MPEG-4
Профиль формата : Base Media / Version 2
Идентификатор кодека : mp42
Размер файла : 449 Мбайт
Продолжительность : 4 м. 13 с.
Общий поток : 14,8 Мбит/сек
Дата кодирования : UTC 2011-08-01 12:10:34
Дата пометки : UTC 2011-08-01 13:10:13

Видео
Идентификатор : 1
Формат : AVC
Формат/Информация : Advanced Video Codec
Профиль формата : High@L4.1
Параметр CABAC формата : Да
Параметр ReFrames формата : 1 кадр
Параметры GOP формата : M=1, N=25
Идентификатор кодека : avc1
Идентификатор кодека/Информация : Advanced Video Coding
Продолжительность : 4 м. 13 с.
Вид битрейта : Переменный
Битрейт : 14,7 Мбит/сек
Ширина : 1920 пикс.
Высота : 1080 пикс.
Соотношение сторон : 16:9
Режим частоты кадров : Постоянный
Частота кадров : 25,000 кадр/сек
Цветовое пространство : YUV
Подвыборка цветности : 4:2:0
Битовая глубина : 8 бит
Тип развёртки : Прогрессивная
Бит/(Пиксели*Кадры) : 0.283
Размер потока : 443 Мбайт (99%)
Язык : English
Дата кодирования : UTC 2011-08-01 12:10:34
Дата пометки : UTC 2011-08-01 13:10:13

Аудио
Идентификатор : 2
Формат : AAC
Формат/Информация : Advanced Audio Codec
Профиль формата : LC
Идентификатор кодека : 40
Продолжительность : 4 м. 13 с.
Вид битрейта : Постоянный
Битрейт : 192 Кбит/сек
Каналы : 2 канала
Расположение каналов : Front: L R
Частота : 44,1 КГц
Метод сжатия : С потерями
Размер потока : 5,80 Мбайт (1%)
Язык : English
Дата кодирования : UTC 2011-08-01 12:10:34
Дата пометки : UTC 2011-08-01 13:10:12

Общее
Полное имя : D:\Клипы\30 клипов HD (2010) HDRip 1080p\Eric_Pridz_-_Pjanoo_HD (1080p).mp4
Формат : MPEG-4
Профиль формата : Base Media / Version 2
Идентификатор кодека : mp42
Размер файла : 336 Мбайт
Продолжительность : 3 м. 6 с.
Общий поток : 15,1 Мбит/сек
Дата кодирования : UTC 2011-08-01 12:11:29
Дата пометки : UTC 2011-08-01 12:48:35

Видео
Идентификатор : 1
Формат : AVC
Формат/Информация : Advanced Video Codec
Профиль формата : High@L4.1
Параметр CABAC формата : Да
Параметр ReFrames формата : 1 кадр
Параметры GOP формата : M=1, N=25
Идентификатор кодека : avc1
Идентификатор кодека/Информация : Advanced Video Coding
Продолжительность : 3 м. 6 с.
Вид битрейта : Переменный
Битрейт : 15,0 Мбит/сек
Ширина : 1920 пикс.
Высота : 1080 пикс.
Соотношение сторон : 16:9
Режим частоты кадров : Постоянный
Частота кадров : 25,000 кадр/сек
Цветовое пространство : YUV
Подвыборка цветности : 4:2:0
Битовая глубина : 8 бит
Тип развёртки : Прогрессивная
Бит/(Пиксели*Кадры) : 0.288
Размер потока : 332 Мбайт (99%)
Язык : English
Дата кодирования : UTC 2011-08-01 12:11:29
Дата пометки : UTC 2011-08-01 12:48:35

Аудио
Идентификатор : 2
Формат : AAC
Формат/Информация : Advanced Audio Codec
Профиль формата : LC
Идентификатор кодека : 40
Продолжительность : 3 м. 6 с.
Вид битрейта : Постоянный
Битрейт : 192 Кбит/сек
Каналы : 2 канала
Расположение каналов : Front: L R
Частота : 44,1 КГц
Метод сжатия : С потерями
Размер потока : 4,26 Мбайт (1%)
Язык : English
Дата кодирования : UTC 2011-08-01 12:11:29
Дата пометки : UTC 2011-08-01 12:48:33

Общее
Полное имя : D:\Клипы\30 клипов HD (2010) HDRip 1080p\HD Life _Rihanna - Umbrella (1080p).mp4
Формат : MPEG-4
Профиль формата : Base Media / Version 2
Идентификатор кодека : mp42
Размер файла : 373 Мбайт
Продолжительность : 3 м. 23 с.
Общий поток : 15,3 Мбит/сек
Дата кодирования : UTC 2011-08-01 12:32:27
Дата пометки : UTC 2011-08-01 13:17:38

Видео
Идентификатор : 1
Формат : AVC
Формат/Информация : Advanced Video Codec
Профиль формата : High@L4.1
Параметр CABAC формата : Да
Параметр ReFrames формата : 1 кадр
Параметры GOP формата : M=1, N=25
Идентификатор кодека : avc1
Идентификатор кодека/Информация : Advanced Video Coding
Продолжительность : 3 м. 23 с.
Вид битрейта : Переменный
Битрейт : 15,1 Мбит/сек
Ширина : 1920 пикс.
Высота : 1080 пикс.
Соотношение сторон : 16:9
Режим частоты кадров : Постоянный
Частота кадров : 25,000 кадр/сек
Цветовое пространство : YUV
Подвыборка цветности : 4:2:0
Битовая глубина : 8 бит
Тип развёртки : Прогрессивная
Бит/(Пиксели*Кадры) : 0.292
Размер потока : 368 Мбайт (99%)
Язык : English
Дата кодирования : UTC 2011-08-01 12:32:27
Дата пометки : UTC 2011-08-01 13:17:38

Аудио
Идентификатор : 2
Формат : AAC
Формат/Информация : Advanced Audio Codec
Профиль формата : LC
Идентификатор кодека : 40
Продолжительность : 3 м. 23 с.
Вид битрейта : Постоянный
Битрейт : 192 Кбит/сек
Каналы : 2 канала
Расположение каналов : Front: L R
Частота : 44,1 КГц
Метод сжатия : С потерями
Размер потока : 4,64 Мбайт (1%)
Язык : English
Дата кодирования : UTC 2011-08-01 12:32:27
Дата пометки : UTC 2011-08-01 13:17:37

Общее
Полное имя : D:\Клипы\30 клипов HD (2010) HDRip 1080p\Inna - Sun Is Up (1080p).mp4
Формат : MPEG-4
Профиль формата : Base Media / Version 2
Идентификатор кодека : mp42
Размер файла : 328 Мбайт
Продолжительность : 3 м. 15 с.
Общий поток : 14,1 Мбит/сек
Дата кодирования : UTC 2011-08-01 12:48:35
Дата пометки : UTC 2011-08-01 13:33:19

Видео
Идентификатор : 1
Формат : AVC
Формат/Информация : Advanced Video Codec
Профиль формата : High@L4.1
Параметр CABAC формата : Да
Параметр ReFrames формата : 1 кадр
Параметры GOP формата : M=1, N=25
Идентификатор кодека : avc1
Идентификатор кодека/Информация : Advanced Video Coding
Продолжительность : 3 м. 15 с.
Вид битрейта : Переменный
Битрейт : 13,9 Мбит/сек
Ширина : 1920 пикс.
Высота : 1080 пикс.
Соотношение сторон : 16:9
Режим частоты кадров : Постоянный
Частота кадров : 25,000 кадр/сек
Цветовое пространство : YUV
Подвыборка цветности : 4:2:0
Битовая глубина : 8 бит
Тип развёртки : Прогрессивная
Бит/(Пиксели*Кадры) : 0.268
Размер потока : 324 Мбайт (99%)
Язык : English
Дата кодирования : UTC 2011-08-01 12:48:35
Дата пометки : UTC 2011-08-01 13:33:19

Аудио
Идентификатор : 2
Формат : AAC
Формат/Информация : Advanced Audio Codec
Профиль формата : LC
Идентификатор кодека : 40
Продолжительность : 3 м. 15 с.
Вид битрейта : Постоянный
Битрейт : 188 Кбит/сек
Каналы : 2 канала
Расположение каналов : Front: L R
Частота : 44,1 КГц
Метод сжатия : С потерями
Размер потока : 4,38 Мбайт (1%)
Язык : English
Дата кодирования : UTC 2011-08-01 12:48:35
Дата пометки : UTC 2011-08-01 13:33:18

Общее
Полное имя : D:\Клипы\30 клипов HD (2010) HDRip 1080p\JIN _Angels_ Official Music Video (2010) (1080p).mp4
Формат : MPEG-4
Профиль формата : Base Media / Version 2
Идентификатор кодека : mp42
Размер файла : 420 Мбайт
Продолжительность : 4 м. 0 с.
Общий поток : 14,6 Мбит/сек
Дата кодирования : UTC 2011-08-01 12:48:35
Дата пометки : UTC 2011-08-01 13:36:59

Видео
Идентификатор : 1
Формат : AVC
Формат/Информация : Advanced Video Codec
Профиль формата : High@L4.1
Параметр CABAC формата : Да
Параметр ReFrames формата : 1 кадр
Параметры GOP формата : M=1, N=25
Идентификатор кодека : avc1
Идентификатор кодека/Информация : Advanced Video Coding
Продолжительность : 4 м. 0 с.
Вид битрейта : Переменный
Битрейт : 14,5 Мбит/сек
Ширина : 1920 пикс.
Высота : 1080 пикс.
Соотношение сторон : 16:9
Режим частоты кадров : Постоянный
Частота кадров : 25,000 кадр/сек
Цветовое пространство : YUV
Подвыборка цветности : 4:2:0
Битовая глубина : 8 бит
Тип развёртки : Прогрессивная
Бит/(Пиксели*Кадры) : 0.279
Размер потока : 415 Мбайт (99%)
Язык : English
Дата кодирования : UTC 2011-08-01 12:48:35
Дата пометки : UTC 2011-08-01 13:36:59

Аудио
Идентификатор : 2
Формат : AAC
Формат/Информация : Advanced Audio Codec
Профиль формата : LC
Идентификатор кодека : 40
Продолжительность : 4 м. 0 с.
Вид битрейта : Постоянный
Битрейт : 177 Кбит/сек
Каналы : 2 канала
Расположение каналов : Front: L R
Частота : 44,1 КГц
Метод сжатия : С потерями
Размер потока : 5,09 Мбайт (1%)
Язык : English
Дата кодирования : UTC 2011-08-01 12:48:35
Дата пометки : UTC 2011-08-01 13:36:58

Общее
Полное имя : D:\Клипы\30 клипов HD (2010) HDRip 1080p\Justin Bieber - Love Me (1080p).mp4
Формат : MPEG-4
Профиль формата : Base Media / Version 2
Идентификатор кодека : mp42
Размер файла : 341 Мбайт
Продолжительность : 3 м. 13 с.
Общий поток : 14,8 Мбит/сек
Дата кодирования : UTC 2011-08-01 13:10:14
Дата пометки : UTC 2011-08-01 13:50:05

Видео
Идентификатор : 1
Формат : AVC
Формат/Информация : Advanced Video Codec
Профиль формата : High@L4.1
Параметр CABAC формата : Да
Параметр ReFrames формата : 1 кадр
Параметры GOP формата : M=1, N=25
Идентификатор кодека : avc1
Идентификатор кодека/Информация : Advanced Video Coding
Продолжительность : 3 м. 13 с.
Вид битрейта : Переменный
Битрейт : 14,6 Мбит/сек
Ширина : 1920 пикс.
Высота : 1080 пикс.
Соотношение сторон : 16:9
Режим частоты кадров : Постоянный
Частота кадров : 25,000 кадр/сек
Цветовое пространство : YUV
Подвыборка цветности : 4:2:0
Битовая глубина : 8 бит
Тип развёртки : Прогрессивная
Бит/(Пиксели*Кадры) : 0.282
Размер потока : 337 Мбайт (99%)
Язык : English
Дата кодирования : UTC 2011-08-01 13:10:14
Дата пометки : UTC 2011-08-01 13:50:05

Аудио
Идентификатор : 2
Формат : AAC
Формат/Информация : Advanced Audio Codec
Профиль формата : LC
Идентификатор кодека : 40
Продолжительность : 3 м. 13 с.
Вид битрейта : Постоянный
Битрейт : 192 Кбит/сек
Каналы : 2 канала
Расположение каналов : Front: L R
Частота : 44,1 КГц
Метод сжатия : С потерями
Размер потока : 4,38 Мбайт (1%)
Язык : English
Дата кодирования : UTC 2011-08-01 13:10:14
Дата пометки : UTC 2011-08-01 13:50:03

Общее
Полное имя : D:\Клипы\30 клипов HD (2010) HDRip 1080p\Katy Perry - Firework (1080p).mp4
Формат : MPEG-4
Профиль формата : Base Media / Version 2
Идентификатор кодека : mp42
Размер файла : 437 Мбайт
Продолжительность : 3 м. 57 с.
Общий поток : 15,4 Мбит/сек
Дата кодирования : UTC 2011-08-01 13:17:39
Дата пометки : UTC 2011-08-01 14:05:07

Видео
Идентификатор : 1
Формат : AVC
Формат/Информация : Advanced Video Codec
Профиль формата : High@L4.1
Параметр CABAC формата : Да
Параметр ReFrames формата : 1 кадр
Параметры GOP формата : M=1, N=25
Идентификатор кодека : avc1
Идентификатор кодека/Информация : Advanced Video Coding
Продолжительность : 3 м. 57 с.
Вид битрейта : Переменный
Битрейт : 15,2 Мбит/сек
Ширина : 1920 пикс.
Высота : 1080 пикс.
Соотношение сторон : 16:9
Режим частоты кадров : Постоянный
Частота кадров : 25,000 кадр/сек
Цветовое пространство : YUV
Подвыборка цветности : 4:2:0
Битовая глубина : 8 бит
Тип развёртки : Прогрессивная
Бит/(Пиксели*Кадры) : 0.294
Размер потока : 432 Мбайт (99%)
Язык : English
Дата кодирования : UTC 2011-08-01 13:17:39
Дата пометки : UTC 2011-08-01 14:05:07

Аудио
Идентификатор : 2
Формат : AAC
Формат/Информация : Advanced Audio Codec
Профиль формата : LC
Идентификатор кодека : 40
Продолжительность : 3 м. 57 с.
Вид битрейта : Постоянный
Битрейт : 192 Кбит/сек
Каналы : 2 канала
Расположение каналов : Front: L R
Частота : 44,1 КГц
Метод сжатия : С потерями
Размер потока : 5,36 Мбайт (1%)
Язык : English
Дата кодирования : UTC 2011-08-01 13:17:39
Дата пометки : UTC 2011-08-01 14:05:07

Общее
Полное имя : D:\Клипы\30 клипов HD (2010) HDRip 1080p\Keri Hilson - Breaking Point (1080p).mp4
Формат : MPEG-4
Профиль формата : Base Media / Version 2
Идентификатор кодека : mp42
Размер файла : 445 Мбайт
Продолжительность : 4 м. 2 с.
Общий поток : 15,4 Мбит/сек
Дата кодирования : UTC 2011-08-01 13:33:20
Дата пометки : UTC 2011-08-01 14:27:33

Видео
Идентификатор : 1
Формат : AVC
Формат/Информация : Advanced Video Codec
Профиль формата : High@L4.1
Параметр CABAC формата : Да
Параметр ReFrames формата : 1 кадр
Параметры GOP формата : M=1, N=25
Идентификатор кодека : avc1
Идентификатор кодека/Информация : Advanced Video Coding
Продолжительность : 4 м. 2 с.
Вид битрейта : Переменный
Битрейт : 15,2 Мбит/сек
Ширина : 1920 пикс.
Высота : 1080 пикс.
Соотношение сторон : 16:9
Режим частоты кадров : Постоянный
Частота кадров : 25,000 кадр/сек
Цветовое пространство : YUV
Подвыборка цветности : 4:2:0
Битовая глубина : 8 бит
Тип развёртки : Прогрессивная
Бит/(Пиксели*Кадры) : 0.293
Размер потока : 439 Мбайт (99%)
Язык : English
Дата кодирования : UTC 2011-08-01 13:33:20
Дата пометки : UTC 2011-08-01 14:27:33

Аудио
Идентификатор : 2
Формат : AAC
Формат/Информация : Advanced Audio Codec
Профиль формата : LC
Идентификатор кодека : 40
Продолжительность : 4 м. 2 с.
Вид битрейта : Постоянный
Битрейт : 192 Кбит/сек
Каналы : 2 канала
Расположение каналов : Front: L R
Частота : 44,1 КГц
Метод сжатия : С потерями
Размер потока : 5,48 Мбайт (1%)
Язык : English
Дата кодирования : UTC 2011-08-01 13:33:20
Дата пометки : UTC 2011-08-01 14:27:33

Общее
Полное имя : D:\Клипы\30 клипов HD (2010) HDRip 1080p\Kylie_Minogue_-_Get_Outta_My_Way (1080p).mp4
Формат : MPEG-4
Профиль формата : Base Media / Version 2
Идентификатор кодека : mp42
Размер файла : 415 Мбайт
Продолжительность : 3 м. 52 с.
Общий поток : 15,0 Мбит/сек
Дата кодирования : UTC 2011-08-01 13:37:00
Дата пометки : UTC 2011-08-01 14:29:21

Видео
Идентификатор : 1
Формат : AVC
Формат/Информация : Advanced Video Codec
Профиль формата : High@L4.1
Параметр CABAC формата : Да
Параметр ReFrames формата : 1 кадр
Параметры GOP формата : M=1, N=25
Идентификатор кодека : avc1
Идентификатор кодека/Информация : Advanced Video Coding
Продолжительность : 3 м. 52 с.
Вид битрейта : Переменный
Битрейт : 14,8 Мбит/сек
Ширина : 1920 пикс.
Высота : 1080 пикс.
Соотношение сторон : 16:9
Режим частоты кадров : Постоянный
Частота кадров : 25,000 кадр/сек
Цветовое пространство : YUV
Подвыборка цветности : 4:2:0
Битовая глубина : 8 бит
Тип развёртки : Прогрессивная
Бит/(Пиксели*Кадры) : 0.286
Размер потока : 410 Мбайт (99%)
Язык : English
Дата кодирования : UTC 2011-08-01 13:37:00
Дата пометки : UTC 2011-08-01 14:29:21

Аудио
Идентификатор : 2
Формат : AAC
Формат/Информация : Advanced Audio Codec
Профиль формата : LC
Идентификатор кодека : 40
Продолжительность : 3 м. 52 с.
Вид битрейта : Постоянный
Битрейт : 183 Кбит/сек
Каналы : 2 канала
Расположение каналов : Front: L R
Частота : 44,1 КГц
Метод сжатия : С потерями
Размер потока : 5,08 Мбайт (1%)
Язык : English
Дата кодирования : UTC 2011-08-01 13:37:00
Дата пометки : UTC 2011-08-01 14:29:20

Общее
Полное имя : D:\Клипы\30 клипов HD (2010) HDRip 1080p\Ludacris ft. Trey Songz - Sex Room (1080p).mp4
Формат : MPEG-4
Профиль формата : Base Media / Version 2
Идентификатор кодека : mp42
Размер файла : 683 Мбайт
Продолжительность : 6 м. 25 с.
Общий поток : 14,9 Мбит/сек
Дата кодирования : UTC 2011-08-01 13:50:06
Дата пометки : UTC 2011-08-01 14:59:54

Видео
Идентификатор : 1
Формат : AVC
Формат/Информация : Advanced Video Codec
Профиль формата : High@L4.1
Параметр CABAC формата : Да
Параметр ReFrames формата : 1 кадр
Параметры GOP формата : M=1, N=25
Идентификатор кодека : avc1
Идентификатор кодека/Информация : Advanced Video Coding
Продолжительность : 6 м. 25 с.
Вид битрейта : Переменный
Битрейт : 14,7 Мбит/сек
Ширина : 1920 пикс.
Высота : 1080 пикс.
Соотношение сторон : 16:9
Режим частоты кадров : Постоянный
Частота кадров : 25,000 кадр/сек
Цветовое пространство : YUV
Подвыборка цветности : 4:2:0
Битовая глубина : 8 бит
Тип развёртки : Прогрессивная
Бит/(Пиксели*Кадры) : 0.283
Размер потока : 674 Мбайт (99%)
Язык : English
Дата кодирования : UTC 2011-08-01 13:50:06
Дата пометки : UTC 2011-08-01 14:59:54

Аудио
Идентификатор : 2
Формат : AAC
Формат/Информация : Advanced Audio Codec
Профиль формата : LC
Идентификатор кодека : 40
Продолжительность : 6 м. 25 с.
Вид битрейта : Постоянный
Битрейт : 184 Кбит/сек
Каналы : 2 канала
Расположение каналов : Front: L R
Частота : 44,1 КГц
Метод сжатия : С потерями
Размер потока : 8,43 Мбайт (1%)
Язык : English
Дата кодирования : UTC 2011-08-01 13:50:06
Дата пометки : UTC 2011-08-01 14:59:54

Общее
Полное имя : D:\Клипы\30 клипов HD (2010) HDRip 1080p\N-Dubz - Girls (1080p).mp4
Формат : MPEG-4
Профиль формата : Base Media / Version 2
Идентификатор кодека : mp42
Размер файла : 267 Мбайт
Продолжительность : 2 м. 53 с.
Общий поток : 12,9 Мбит/сек
Дата кодирования : UTC 2011-08-01 14:05:09
Дата пометки : UTC 2011-08-01 14:41:51

Видео
Идентификатор : 1
Формат : AVC
Формат/Информация : Advanced Video Codec
Профиль формата : High@L4.1
Параметр CABAC формата : Да
Параметр ReFrames формата : 1 кадр
Параметры GOP формата : M=1, N=21
Идентификатор кодека : avc1
Идентификатор кодека/Информация : Advanced Video Coding
Продолжительность : 2 м. 53 с.
Вид битрейта : Переменный
Битрейт : 12,7 Мбит/сек
Ширина : 1920 пикс.
Высота : 1080 пикс.
Соотношение сторон : 16:9
Режим частоты кадров : Постоянный
Частота кадров : 25,000 кадр/сек
Цветовое пространство : YUV
Подвыборка цветности : 4:2:0
Битовая глубина : 8 бит
Тип развёртки : Прогрессивная
Бит/(Пиксели*Кадры) : 0.245
Размер потока : 263 Мбайт (99%)
Язык : English
Дата кодирования : UTC 2011-08-01 14:05:09
Дата пометки : UTC 2011-08-01 14:41:50

Аудио
Идентификатор : 2
Формат : AAC
Формат/Информация : Advanced Audio Codec
Профиль формата : LC
Идентификатор кодека : 40
Продолжительность : 2 м. 53 с.
Вид битрейта : Постоянный
Битрейт : 192 Кбит/сек
Каналы : 2 канала
Расположение каналов : Front: L R
Частота : 44,1 КГц
Метод сжатия : С потерями
Размер потока : 3,93 Мбайт (1%)
Язык : English
Дата кодирования : UTC 2011-08-01 14:05:09
Дата пометки : UTC 2011-08-01 14:41:50

Общее
Полное имя : D:\Клипы\30 клипов HD (2010) HDRip 1080p\Ne-Yo - Beautiful Monster (1080p).mp4
Формат : MPEG-4
Профиль формата : Base Media / Version 2
Идентификатор кодека : mp42
Размер файла : 423 Мбайт
Продолжительность : 4 м. 11 с.
Общий поток : 14,1 Мбит/сек
Дата кодирования : UTC 2011-08-01 14:29:22
Дата пометки : UTC 2011-08-01 15:16:30

Видео
Идентификатор : 1
Формат : AVC
Формат/Информация : Advanced Video Codec
Профиль формата : High@L4.1
Параметр CABAC формата : Да
Параметр ReFrames формата : 1 кадр
Идентификатор кодека : avc1
Идентификатор кодека/Информация : Advanced Video Coding
Продолжительность : 4 м. 11 с.
Вид битрейта : Переменный
Битрейт : 13,9 Мбит/сек
Ширина : 1920 пикс.
Высота : 1080 пикс.
Соотношение сторон : 16:9
Режим частоты кадров : Постоянный
Частота кадров : 25,000 кадр/сек
Цветовое пространство : YUV
Подвыборка цветности : 4:2:0
Битовая глубина : 8 бит
Тип развёртки : Прогрессивная
Бит/(Пиксели*Кадры) : 0.268
Размер потока : 417 Мбайт (99%)
Язык : English
Дата кодирования : UTC 2011-08-01 14:29:22
Дата пометки : UTC 2011-08-01 15:16:30

Аудио
Идентификатор : 2
Формат : AAC
Формат/Информация : Advanced Audio Codec
Профиль формата : LC
Идентификатор кодека : 40
Продолжительность : 4 м. 11 с.
Вид битрейта : Постоянный
Битрейт : 188 Кбит/сек
Каналы : 2 канала
Расположение каналов : Front: L R
Частота : 44,1 КГц
Метод сжатия : С потерями
Размер потока : 5,63 Мбайт (1%)
Язык : English
Дата кодирования : UTC 2011-08-01 14:29:22
Дата пометки : UTC 2011-08-01 15:16:30

Общее
Полное имя : D:\Клипы\30 клипов HD (2010) HDRip 1080p\Ne-Yo - Champagne Life (1080p).mp4
Формат : MPEG-4
Профиль формата : Base Media / Version 2
Идентификатор кодека : mp42
Размер файла : 482 Мбайт
Продолжительность : 4 м. 27 с.
Общий поток : 15,1 Мбит/сек
Дата кодирования : UTC 2011-08-01 14:41:51
Дата пометки : UTC 2011-08-01 15:31:56

Видео
Идентификатор : 1
Формат : AVC
Формат/Информация : Advanced Video Codec
Профиль формата : High@L4.1
Параметр CABAC формата : Да
Параметр ReFrames формата : 1 кадр
Параметры GOP формата : M=1, N=25
Идентификатор кодека : avc1
Идентификатор кодека/Информация : Advanced Video Coding
Продолжительность : 4 м. 27 с.
Вид битрейта : Переменный
Битрейт : 14,9 Мбит/сек
Ширина : 1920 пикс.
Высота : 1080 пикс.
Соотношение сторон : 16:9
Режим частоты кадров : Постоянный
Частота кадров : 25,000 кадр/сек
Цветовое пространство : YUV
Подвыборка цветности : 4:2:0
Битовая глубина : 8 бит
Тип развёртки : Прогрессивная
Бит/(Пиксели*Кадры) : 0.288
Размер потока : 476 Мбайт (99%)
Язык : English
Дата кодирования : UTC 2011-08-01 14:41:51
Дата пометки : UTC 2011-08-01 15:31:56

Аудио
Идентификатор : 2
Формат : AAC
Формат/Информация : Advanced Audio Codec
Профиль формата : LC
Идентификатор кодека : 40
Продолжительность : 4 м. 27 с.
Вид битрейта : Постоянный
Битрейт : 192 Кбит/сек
Каналы : 2 канала
Расположение каналов : Front: L R
Частота : 44,1 КГц
Метод сжатия : С потерями
Размер потока : 6,08 Мбайт (1%)
Язык : English
Дата кодирования : UTC 2011-08-01 14:41:52
Дата пометки : UTC 2011-08-01 15:31:55

Общее
Полное имя : D:\Клипы\30 клипов HD (2010) HDRip 1080p\Ne-Yo - One In A Million (1080p).mp4
Формат : MPEG-4
Профиль формата : Base Media / Version 2
Идентификатор кодека : mp42
Размер файла : 490 Мбайт
Продолжительность : 4 м. 36 с.
Общий поток : 14,9 Мбит/сек
Дата кодирования : UTC 2011-08-01 14:59:55
Дата пометки : UTC 2011-08-01 15:59:27

Видео
Идентификатор : 1
Формат : AVC
Формат/Информация : Advanced Video Codec
Профиль формата : High@L4.1
Параметр CABAC формата : Да
Параметр ReFrames формата : 1 кадр
Идентификатор кодека : avc1
Идентификатор кодека/Информация : Advanced Video Coding
Продолжительность : 4 м. 36 с.
Вид битрейта : Переменный
Битрейт : 14,7 Мбит/сек
Ширина : 1920 пикс.
Высота : 1080 пикс.
Соотношение сторон : 16:9
Режим частоты кадров : Постоянный
Частота кадров : 25,000 кадр/сек
Цветовое пространство : YUV
Подвыборка цветности : 4:2:0
Битовая глубина : 8 бит
Тип развёртки : Прогрессивная
Бит/(Пиксели*Кадры) : 0.283
Размер потока : 483 Мбайт (99%)
Язык : English
Дата кодирования : UTC 2011-08-01 14:59:55
Дата пометки : UTC 2011-08-01 15:59:27

Аудио
Идентификатор : 2
Формат : AAC
Формат/Информация : Advanced Audio Codec
Профиль формата : LC
Идентификатор кодека : 40
Продолжительность : 4 м. 36 с.
Вид битрейта : Постоянный
Битрейт : 187 Кбит/сек
Каналы : 2 канала
Расположение каналов : Front: L R
Частота : 44,1 КГц
Метод сжатия : С потерями
Размер потока : 6,14 Мбайт (1%)
Язык : English
Дата кодирования : UTC 2011-08-01 14:59:55
Дата пометки : UTC 2011-08-01 15:59:26

Общее
Полное имя : D:\Клипы\30 клипов HD (2010) HDRip 1080p\Nelly Furtado - Fuerte (1080p).mp4
Формат : MPEG-4
Профиль формата : Base Media / Version 2
Идентификатор кодека : mp42
Размер файла : 321 Мбайт
Продолжительность : 3 м. 2 с.
Общий поток : 14,7 Мбит/сек
Дата кодирования : UTC 2011-08-01 14:27:34
Дата пометки : UTC 2011-08-01 15:07:10

Видео
Идентификатор : 1
Формат : AVC
Формат/Информация : Advanced Video Codec
Профиль формата : High@L4.1
Параметр CABAC формата : Да
Параметр ReFrames формата : 1 кадр
Идентификатор кодека : avc1
Идентификатор кодека/Информация : Advanced Video Coding
Продолжительность : 3 м. 2 с.
Вид битрейта : Переменный
Битрейт : 14,6 Мбит/сек
Ширина : 1920 пикс.
Высота : 1080 пикс.
Соотношение сторон : 16:9
Режим частоты кадров : Постоянный
Частота кадров : 25,000 кадр/сек
Цветовое пространство : YUV
Подвыборка цветности : 4:2:0
Битовая глубина : 8 бит
Тип развёртки : Прогрессивная
Бит/(Пиксели*Кадры) : 0.281
Размер потока : 317 Мбайт (99%)
Язык : English
Дата кодирования : UTC 2011-08-01 14:27:34
Дата пометки : UTC 2011-08-01 15:07:10

Аудио
Идентификатор : 2
Формат : AAC
Формат/Информация : Advanced Audio Codec
Профиль формата : LC
Идентификатор кодека : 40
Продолжительность : 3 м. 2 с.
Вид битрейта : Постоянный
Битрейт : 185 Кбит/сек
Каналы : 2 канала
Расположение каналов : Front: L R
Частота : 44,1 КГц
Метод сжатия : С потерями
Размер потока : 4,03 Мбайт (1%)
Язык : English
Дата кодирования : UTC 2011-08-01 14:27:34
Дата пометки : UTC 2011-08-01 15:07:09

Общее
Полное имя : D:\Клипы\30 клипов HD (2010) HDRip 1080p\Nicole_Scherzinger_-_Poison_(1080p).mp4
Формат : MPEG-4
Профиль формата : Base Media / Version 2
Идентификатор кодека : mp42
Размер файла : 410 Мбайт
Продолжительность : 3 м. 55 с.
Общий поток : 14,6 Мбит/сек
Дата кодирования : UTC 2011-08-01 15:07:11
Дата пометки : UTC 2011-08-01 15:59:03

Видео
Идентификатор : 1
Формат : AVC
Формат/Информация : Advanced Video Codec
Профиль формата : High@L4.1
Параметр CABAC формата : Да
Параметр ReFrames формата : 1 кадр
Идентификатор кодека : avc1
Идентификатор кодека/Информация : Advanced Video Coding
Продолжительность : 3 м. 55 с.
Вид битрейта : Переменный
Битрейт : 14,4 Мбит/сек
Ширина : 1920 пикс.
Высота : 1080 пикс.
Соотношение сторон : 16:9
Режим частоты кадров : Постоянный
Частота кадров : 25,000 кадр/сек
Цветовое пространство : YUV
Подвыборка цветности : 4:2:0
Битовая глубина : 8 бит
Тип развёртки : Прогрессивная
Бит/(Пиксели*Кадры) : 0.279
Размер потока : 405 Мбайт (99%)
Язык : English
Дата кодирования : UTC 2011-08-01 15:07:11
Дата пометки : UTC 2011-08-01 15:59:03

Аудио
Идентификатор : 2
Формат : AAC
Формат/Информация : Advanced Audio Codec
Профиль формата : LC
Идентификатор кодека : 40
Продолжительность : 3 м. 55 с.
Вид битрейта : Постоянный
Битрейт : 185 Кбит/сек
Каналы : 2 канала
Расположение каналов : Front: L R
Частота : 44,1 КГц
Метод сжатия : С потерями
Размер потока : 5,18 Мбайт (1%)
Язык : English
Дата кодирования : UTC 2011-08-01 15:07:11
Дата пометки : UTC 2011-08-01 15:59:03

Общее
Полное имя : D:\Клипы\30 клипов HD (2010) HDRip 1080p\Platnum - Love Shy (1080p).mp4
Формат : MPEG-4
Профиль формата : Base Media / Version 2
Идентификатор кодека : mp42
Размер файла : 317 Мбайт
Продолжительность : 2 м. 51 с.
Общий поток : 15,5 Мбит/сек
Дата кодирования : UTC 2011-08-01 15:16:31
Дата пометки : UTC 2011-08-01 15:54:43

Видео
Идентификатор : 1
Формат : AVC
Формат/Информация : Advanced Video Codec
Профиль формата : High@L4.1
Параметр CABAC формата : Да
Параметр ReFrames формата : 1 кадр
Параметры GOP формата : M=1, N=25
Идентификатор кодека : avc1
Идентификатор кодека/Информация : Advanced Video Coding
Продолжительность : 2 м. 51 с.
Вид битрейта : Переменный
Битрейт : 15,3 Мбит/сек
Ширина : 1920 пикс.
Высота : 1080 пикс.
Соотношение сторон : 16:9
Режим частоты кадров : Постоянный
Частота кадров : 25,000 кадр/сек
Цветовое пространство : YUV
Подвыборка цветности : 4:2:0
Битовая глубина : 8 бит
Тип развёртки : Прогрессивная
Бит/(Пиксели*Кадры) : 0.295
Размер потока : 313 Мбайт (99%)
Язык : English
Дата кодирования : UTC 2011-08-01 15:16:31
Дата пометки : UTC 2011-08-01 15:54:43

Аудио
Идентификатор : 2
Формат : AAC
Формат/Информация : Advanced Audio Codec
Профиль формата : LC
Идентификатор кодека : 40
Продолжительность : 2 м. 51 с.
Вид битрейта : Постоянный
Битрейт : 192 Кбит/сек
Каналы : 2 канала
Расположение каналов : Front: L R
Частота : 44,1 КГц
Метод сжатия : С потерями
Размер потока : 3,93 Мбайт (1%)
Язык : English
Дата кодирования : UTC 2011-08-01 15:16:31
Дата пометки : UTC 2011-08-01 15:54:40

Общее
Полное имя : D:\Клипы\30 клипов HD (2010) HDRip 1080p\Potap-A_more_penitsa (1080p).mp4
Формат : MPEG-4
Профиль формата : Base Media / Version 2
Идентификатор кодека : mp42
Размер файла : 371 Мбайт
Продолжительность : 3 м. 25 с.
Общий поток : 15,1 Мбит/сек
Дата кодирования : UTC 2011-08-01 15:31:57
Дата пометки : UTC 2011-08-01 16:12:23

Видео
Идентификатор : 1
Формат : AVC
Формат/Информация : Advanced Video Codec
Профиль формата : High@L4.1
Параметр CABAC формата : Да
Параметр ReFrames формата : 1 кадр
Параметры GOP формата : M=1, N=25
Идентификатор кодека : avc1
Идентификатор кодека/Информация : Advanced Video Coding
Продолжительность : 3 м. 25 с.
Вид битрейта : Переменный
Битрейт : 15,0 Мбит/сек
Ширина : 1920 пикс.
Высота : 1080 пикс.
Соотношение сторон : 16:9
Режим частоты кадров : Постоянный
Частота кадров : 25,000 кадр/сек
Цветовое пространство : YUV
Подвыборка цветности : 4:2:0
Битовая глубина : 8 бит
Тип развёртки : Прогрессивная
Бит/(Пиксели*Кадры) : 0.288
Размер потока : 367 Мбайт (99%)
Язык : English
Дата кодирования : UTC 2011-08-01 15:31:57
Дата пометки : UTC 2011-08-01 16:12:23

Аудио
Идентификатор : 2
Формат : AAC
Формат/Информация : Advanced Audio Codec
Профиль формата : LC
Идентификатор кодека : 40
Продолжительность : 3 м. 25 с.
Вид битрейта : Постоянный
Битрейт : 192 Кбит/сек
Каналы : 2 канала
Расположение каналов : Front: L R
Частота : 44,1 КГц
Метод сжатия : С потерями
Размер потока : 4,63 Мбайт (1%)
Язык : English
Дата кодирования : UTC 2011-08-01 15:31:57
Дата пометки : UTC 2011-08-01 16:12:22

Общее
Полное имя : D:\Клипы\30 клипов HD (2010) HDRip 1080p\Serge Devant - Ghost (1080p).mp4
Формат : MPEG-4
Профиль формата : Base Media / Version 2
Идентификатор кодека : mp42
Размер файла : 500 Мбайт
Продолжительность : 4 м. 47 с.
Общий поток : 14,6 Мбит/сек
Дата кодирования : UTC 2011-08-01 15:54:44
Дата пометки : UTC 2011-08-01 16:53:12

Видео
Идентификатор : 1
Формат : AVC
Формат/Информация : Advanced Video Codec
Профиль формата : High@L4.1
Параметр CABAC формата : Да
Параметр ReFrames формата : 1 кадр
Идентификатор кодека : avc1
Идентификатор кодека/Информация : Advanced Video Coding
Продолжительность : 4 м. 47 с.
Вид битрейта : Переменный
Битрейт : 14,4 Мбит/сек
Ширина : 1920 пикс.
Высота : 1080 пикс.
Соотношение сторон : 16:9
Режим частоты кадров : Постоянный
Частота кадров : 25,000 кадр/сек
Цветовое пространство : YUV
Подвыборка цветности : 4:2:0
Битовая глубина : 8 бит
Тип развёртки : Прогрессивная
Бит/(Пиксели*Кадры) : 0.278
Размер потока : 493 Мбайт (99%)
Язык : English
Дата кодирования : UTC 2011-08-01 15:54:44
Дата пометки : UTC 2011-08-01 16:53:12

Аудио
Идентификатор : 2
Формат : AAC
Формат/Информация : Advanced Audio Codec
Профиль формата : LC
Идентификатор кодека : 40
Продолжительность : 4 м. 47 с.
Вид битрейта : Постоянный
Битрейт : 192 Кбит/сек
Каналы : 2 канала
Расположение каналов : Front: L R
Частота : 44,1 КГц
Метод сжатия : С потерями
Размер потока : 6,46 Мбайт (1%)
Язык : English
Дата кодирования : UTC 2011-08-01 15:54:44
Дата пометки : UTC 2011-08-01 16:53:10

Общее
Полное имя : D:\Клипы\30 клипов HD (2010) HDRip 1080p\shakira ft. dizzee rascal-loca (1080p).mp4
Формат : MPEG-4
Профиль формата : Base Media / Version 2
Идентификатор кодека : mp42
Размер файла : 372 Мбайт
Продолжительность : 3 м. 25 с.
Общий поток : 15,2 Мбит/сек
Дата кодирования : UTC 2011-08-01 15:59:05
Дата пометки : UTC 2011-08-01 16:52:38

Видео
Идентификатор : 1
Формат : AVC
Формат/Информация : Advanced Video Codec
Профиль формата : High@L4.1
Параметр CABAC формата : Да
Параметр ReFrames формата : 1 кадр
Идентификатор кодека : avc1
Идентификатор кодека/Информация : Advanced Video Coding
Продолжительность : 3 м. 25 с.
Вид битрейта : Переменный
Битрейт : 15,0 Мбит/сек
Ширина : 1920 пикс.
Высота : 1080 пикс.
Соотношение сторон : 16:9
Режим частоты кадров : Постоянный
Частота кадров : 25,000 кадр/сек
Цветовое пространство : YUV
Подвыборка цветности : 4:2:0
Битовая глубина : 8 бит
Тип развёртки : Прогрессивная
Бит/(Пиксели*Кадры) : 0.290
Размер потока : 367 Мбайт (99%)
Язык : English
Дата кодирования : UTC 2011-08-01 15:59:05
Дата пометки : UTC 2011-08-01 16:52:38

Аудио
Идентификатор : 2
Формат : AAC
Формат/Информация : Advanced Audio Codec
Профиль формата : LC
Идентификатор кодека : 40
Продолжительность : 3 м. 25 с.
Вид битрейта : Постоянный
Битрейт : 192 Кбит/сек
Каналы : 2 канала
Расположение каналов : Front: L R
Частота : 44,1 КГц
Метод сжатия : С потерями
Размер потока : 4,69 Мбайт (1%)
Язык : English
Дата кодирования : UTC 2011-08-01 15:59:05
Дата пометки : UTC 2011-08-01 16:52:35

Общее
Полное имя : D:\Клипы\30 клипов HD (2010) HDRip 1080p\Tiesto - In the Dark (1080p).mp4
Формат : MPEG-4
Профиль формата : Base Media / Version 2
Идентификатор кодека : mp42
Размер файла : 417 Мбайт
Продолжительность : 3 м. 48 с.
Общий поток : 15,3 Мбит/сек
Дата кодирования : UTC 2011-08-01 15:59:28
Дата пометки : UTC 2011-08-01 16:52:45

Видео
Идентификатор : 1
Формат : AVC
Формат/Информация : Advanced Video Codec
Профиль формата : High@L4.1
Параметр CABAC формата : Да
Параметр ReFrames формата : 1 кадр
Идентификатор кодека : avc1
Идентификатор кодека/Информация : Advanced Video Coding
Продолжительность : 3 м. 48 с.
Вид битрейта : Переменный
Битрейт : 15,1 Мбит/сек
Ширина : 1920 пикс.
Высота : 1080 пикс.
Соотношение сторон : 16:9
Режим частоты кадров : Постоянный
Частота кадров : 25,000 кадр/сек
Цветовое пространство : YUV
Подвыборка цветности : 4:2:0
Битовая глубина : 8 бит
Тип развёртки : Прогрессивная
Бит/(Пиксели*Кадры) : 0.291
Размер потока : 412 Мбайт (99%)
Язык : English
Дата кодирования : UTC 2011-08-01 15:59:28
Дата пометки : UTC 2011-08-01 16:52:45

Аудио
Идентификатор : 2
Формат : AAC
Формат/Информация : Advanced Audio Codec
Профиль формата : LC
Идентификатор кодека : 40
Продолжительность : 3 м. 48 с.
Вид битрейта : Постоянный
Битрейт : 192 Кбит/сек
Каналы : 2 канала
Расположение каналов : Front: L R
Частота : 44,1 КГц
Метод сжатия : С потерями
Размер потока : 5,23 Мбайт (1%)
Язык : English
Дата кодирования : UTC 2011-08-01 15:59:28
Дата пометки : UTC 2011-08-01 16:52:43

Общее
Полное имя : D:\Клипы\30 клипов HD (2010) HDRip 1080p\Tiesto_-_Speed_Rail (1080p).mp4
Формат : MPEG-4
Профиль формата : Base Media / Version 2
Идентификатор кодека : mp42
Размер файла : 492 Мбайт
Продолжительность : 4 м. 33 с.
Общий поток : 15,1 Мбит/сек
Дата кодирования : UTC 2011-08-01 16:52:39
Дата пометки : UTC 2011-08-01 17:38:02

Видео
Идентификатор : 1
Формат : AVC
Формат/Информация : Advanced Video Codec
Профиль формата : High@L4.1
Параметр CABAC формата : Да
Параметр ReFrames формата : 1 кадр
Параметры GOP формата : M=1, N=25
Идентификатор кодека : avc1
Идентификатор кодека/Информация : Advanced Video Coding
Продолжительность : 4 м. 33 с.
Вид битрейта : Переменный
Битрейт : 14,9 Мбит/сек
Ширина : 1920 пикс.
Высота : 1080 пикс.
Соотношение сторон : 16:9
Режим частоты кадров : Постоянный
Частота кадров : 25,000 кадр/сек
Цветовое пространство : YUV
Подвыборка цветности : 4:2:0
Битовая глубина : 8 бит
Тип развёртки : Прогрессивная
Бит/(Пиксели*Кадры) : 0.288
Размер потока : 486 Мбайт (99%)
Язык : English
Дата кодирования : UTC 2011-08-01 16:52:39
Дата пометки : UTC 2011-08-01 17:38:02

Аудио
Идентификатор : 2
Формат : AAC
Формат/Информация : Advanced Audio Codec
Профиль формата : LC
Идентификатор кодека : 40
Продолжительность : 4 м. 33 с.
Вид битрейта : Постоянный
Битрейт : 188 Кбит/сек
Каналы : 2 канала
Расположение каналов : Front: L R
Частота : 44,1 КГц
Метод сжатия : С потерями
Размер потока : 6,11 Мбайт (1%)
Язык : English
Дата кодирования : UTC 2011-08-01 16:52:39
Дата пометки : UTC 2011-08-01 17:38:02

Общее
Полное имя : D:\Клипы\30 клипов HD (2010) HDRip 1080p\Tiësto presents Alone In The Dark_ Inferno - Edward Carnby (720p).mp4
Формат : MPEG-4
Профиль формата : Base Media / Version 2
Идентификатор кодека : mp42
Размер файла : 391 Мбайт
Продолжительность : 3 м. 50 с.
Общий поток : 14,2 Мбит/сек
Дата кодирования : UTC 2011-08-01 16:12:25
Дата пометки : UTC 2011-08-01 17:04:58

Видео
Идентификатор : 1
Формат : AVC
Формат/Информация : Advanced Video Codec
Профиль формата : High@L4.1
Параметр CABAC формата : Да
Параметр ReFrames формата : 1 кадр
Идентификатор кодека : avc1
Идентификатор кодека/Информация : Advanced Video Coding
Продолжительность : 3 м. 50 с.
Вид битрейта : Переменный
Битрейт : 14,0 Мбит/сек
Ширина : 1920 пикс.
Высота : 1080 пикс.
Соотношение сторон : 16:9
Режим частоты кадров : Постоянный
Частота кадров : 25,000 кадр/сек
Цветовое пространство : YUV
Подвыборка цветности : 4:2:0
Битовая глубина : 8 бит
Тип развёртки : Прогрессивная
Бит/(Пиксели*Кадры) : 0.271
Размер потока : 386 Мбайт (99%)
Язык : English
Дата кодирования : UTC 2011-08-01 16:12:25
Дата пометки : UTC 2011-08-01 17:04:58

Аудио
Идентификатор : 2
Формат : AAC
Формат/Информация : Advanced Audio Codec
Профиль формата : LC
Идентификатор кодека : 40
Продолжительность : 3 м. 50 с.
Вид битрейта : Постоянный
Битрейт : 192 Кбит/сек
Каналы : 2 канала
Расположение каналов : Front: L R
Частота : 44,1 КГц
Метод сжатия : С потерями
Размер потока : 5,22 Мбайт (1%)
Язык : English
Дата кодирования : UTC 2011-08-01 16:12:25
Дата пометки : UTC 2011-08-01 17:04:56

Общее
Полное имя : D:\Клипы\30 клипов HD (2010) HDRip 1080p\Will.I.Am_ft._Nicki_Minaj_-_Check_It_Out (1080p).mp4
Формат : MPEG-4
Профиль формата : Base Media / Version 2
Идентификатор кодека : mp42
Размер файла : 407 Мбайт
Продолжительность : 4 м. 32 с.
Общий поток : 12,5 Мбит/сек
Дата кодирования : UTC 2011-08-01 16:52:46
Дата пометки : UTC 2011-08-01 17:35:30

Видео
Идентификатор : 1
Формат : AVC
Формат/Информация : Advanced Video Codec
Профиль формата : High@L4.1
Параметр CABAC формата : Да
Параметр ReFrames формата : 1 кадр
Идентификатор кодека : avc1
Идентификатор кодека/Информация : Advanced Video Coding
Продолжительность : 4 м. 32 с.
Вид битрейта : Переменный
Битрейт : 12,3 Мбит/сек
Ширина : 1920 пикс.
Высота : 1080 пикс.
Соотношение сторон : 16:9
Режим частоты кадров : Постоянный
Частота кадров : 25,000 кадр/сек
Цветовое пространство : YUV
Подвыборка цветности : 4:2:0
Битовая глубина : 8 бит
Тип развёртки : Прогрессивная
Бит/(Пиксели*Кадры) : 0.238
Размер потока : 400 Мбайт (98%)
Язык : English
Дата кодирования : UTC 2011-08-01 16:52:46
Дата пометки : UTC 2011-08-01 17:35:30

Аудио
Идентификатор : 2
Формат : AAC
Формат/Информация : Advanced Audio Codec
Профиль формата : LC
Идентификатор кодека : 40
Продолжительность : 4 м. 32 с.
Вид битрейта : Постоянный
Битрейт : 192 Кбит/сек
Каналы : 2 канала
Расположение каналов : Front: L R
Частота : 44,1 КГц
Метод сжатия : С потерями
Размер потока : 6,12 Мбайт (2%)
Язык : English
Дата кодирования : UTC 2011-08-01 16:52:46
Дата пометки : UTC 2011-08-01 17:35:29

Общее
Полное имя : D:\Клипы\30 клипов HD (2010) HDRip 1080p\Willow Smith - Whip My Hair (1080p).mp4
Формат : MPEG-4
Профиль формата : Base Media / Version 2
Идентификатор кодека : mp42
Размер файла : 427 Мбайт
Продолжительность : 3 м. 53 с.
Общий поток : 15,3 Мбит/сек
Дата кодирования : UTC 2011-08-01 16:53:14
Дата пометки : UTC 2011-08-01 17:36:46

Видео
Идентификатор : 1
Формат : AVC
Формат/Информация : Advanced Video Codec
Профиль формата : High@L4.1
Параметр CABAC формата : Да
Параметр ReFrames формата : 1 кадр
Идентификатор кодека : avc1
Идентификатор кодека/Информация : Advanced Video Coding
Продолжительность : 3 м. 53 с.
Вид битрейта : Переменный
Битрейт : 15,1 Мбит/сек
Ширина : 1920 пикс.
Высота : 1080 пикс.
Соотношение сторон : 16:9
Режим частоты кадров : Постоянный
Частота кадров : 25,000 кадр/сек
Цветовое пространство : YUV
Подвыборка цветности : 4:2:0
Битовая глубина : 8 бит
Тип развёртки : Прогрессивная
Бит/(Пиксели*Кадры) : 0.292
Размер потока : 422 Мбайт (99%)
Язык : English
Дата кодирования : UTC 2011-08-01 16:53:14
Дата пометки : UTC 2011-08-01 17:36:46

Аудио
Идентификатор : 2
Формат : AAC
Формат/Информация : Advanced Audio Codec
Профиль формата : LC
Идентификатор кодека : 40
Продолжительность : 3 м. 53 с.
Вид битрейта : Постоянный
Битрейт : 192 Кбит/сек
Каналы : 2 канала
Расположение каналов : Front: L R
Частота : 44,1 КГц
Метод сжатия : С потерями
Размер потока : 5,27 Мбайт (1%)
Язык : English
Дата кодирования : UTC 2011-08-01 16:53:14
Дата пометки : UTC 2011-08-01 17:36:44
pb.wtf



Скачать 30 клипов HD через торрент http://i26.fastpic.ru/big/2011/0801/3a/4deff4d70a7be54bb8a4b09a7091ae3a.png Скачать, смотреть онлайн 30 клипов HD бесплантно в хорошем качестве Год выпуска: 2010Страна: РоссияЖанр: клипыПродолжительность: 01:57:33Перевод: Не требуется1)50 Cent Ft. Lloyd Banks, Fat Joe, T.I. - Club ... 9.1 10 10
Info! Золотая раздача, скачанное не засчитывается.
Торрент: Зарегистрирован [2011-08-01 18:48] · скачан: 493 раз
Статус: √ проверено
Размер: 11.92 GB
Как cкачать? Как скачать 30 клипов HD через торрент | UTorrent

28-11-2019 20:33  

Отключить всю рекламу на сайте

01-08-2011 22:23 30 клипов HD Скачать торрент  

кким леером их открывать!!!pb.wtf



01-08-2011 22:46 30 клипов HD Скачать торрент  

Media Player Classic или Kmp player
хорошие плееры всё открываютpb.wtf



02-08-2011 00:02 30 клипов HD Скачать торрент  

Для таких вещей, самый лучший плеер Splash PRO.pb.wtf



02-08-2011 04:47 30 клипов HD Скачать торрент  

Ага Splash PRO самый лучшийpb.wtf



02-08-2011 07:59 30 клипов HD Скачать торрент  

уже было... http://pb.wtf/viewtopic.php?t=27480pb.wtf



02-08-2011 13:43 30 клипов HD Скачать торрент  

Ramires76 писал(а):


Вам что лижбы с умничать pb.wtf



25-01-2012 08:02 30 клипов HD Скачать торрент  

дайте скоростиюpb.wtf



15-12-2012 15:23 30 клипов HD Скачать торрент  

Встаньте еще кто нибудь на раздачу!pb.wtf



12-04-2013 05:29 30 клипов HD Скачать торрент  

СПАСИБО, МОЛОДЦА!!!pb.wtf



    Дорогой пользователь! Огромная просьба, поблагодарите релизера, оцените раздачу и оставьте свои комментарий, если Вы скачали 30 клипов HD через торрент бесплатно!
    Комментировать посты могут только пользователи прошедшие не сложную регистрацию
    Показать сообщения:    

    30 клипов HD через торрент
    Скачать бесплатно 30 клипов HD
    30 клипов HD скачать торрент
    30 клипов HD смотреть онлайн
    Cкачать фильм 30 клипов HD бесплатно
    30 клипов HD скачать торрент в хорошем качестве
    30 клипов HD смотреть онлайн бесплатно в хорошем качестве


    Вы не можете начинать темы
    Вы не можете отвечать на сообщения
    Вы не можете редактировать свои сообщения
    Вы не можете удалять свои сообщения
    Вы не можете голосовать в опросах
    Вы не можете прикреплять файлы к сообщениям
    Вы можете скачивать файлы