Доктор Стрэндж

Лицензия

Добыча

Дубляж

Дом дракона

1 сезон

Тор

Дубляж

В эфире

Дубляж

Там, где раки поют

MVO

Властелин колец

1 сезон

Ultimate

pack

Рекомендуем

30

Пиратка

ВАЖНО

ВАЖНО

Ghostwire

Пиратка

jed

RePack

nioh2

RePack

RDR2

RePack

NEED FOR SPEED™ PAYBACK

RePack

скачать торрент

Кинопоиск HD

Острые козырьки 6 сезон

6 сезон

FAR CRY 6

RePack

скачать торрент

Лицензия

скачать торрент

MVO

1

1 сезон

скачать торрент

1 сезон

скачать торрент

Лицензия

  

Алиса в стране чудес 3D / Alice in Wonderland 3D (Тим Бёртон) [2010 г., фэнтези, приключения, семейный, HDRip] 3D: Anaglyph / Анаглиф red'cyan

Алиса в стране чудес 3D через торрент pb.wtf

Размер: 6.84 GB | Добавлен: 11 лет назад | Торрент скачан:255 раз
Смотреть онлайн | Скачать   

03-08-2011 07:59 Алиса в стране чудес 3D Скачать торрент  

Алиса в стране чудес 3D / Alice in Wonderland 3D

Год выпуска: 2010
Страна: США
Жанр: фэнтези, приключения, семейный
Продолжительность: 1 ч. 48 м.
Перевод: Профессиональный (полное дублирование) [Лицензия]

Режиссер: Тим Бёртон
Продюссер: Ричард Д. Занук, Джо Рот, Дженнифер Тодд
Сценарий: Линда Вулвертон, Льюис Кэрролл

Бюджет: $200 000 000

PG
-Рекомендуется присутствие родителей
Мировой рейтинг IMDB 6.60 (95 773)


В ролях: Джонни Депп, Миа Васиковска, Хелена Бонем Картер, Энн Хэтэуэй, Криспин Гловер, Мэтт Лукас, Майкл Шин, Стивен Фрай, Алан Рикман, Барбара Уиндс

Описание: Жизнь 19-летней Алисы Кингсли принимает неожиданный оборот. На викторианской вечеринке, устроенной в её честь, Алисе делает предложение Хэмиш, богатый, но глупый сын лорда и леди Эскот. Не дав ответа, девушка убегает и идёт за кроликом, замеченным ею на лужайке. Кролик как кролик, вот только он одет в камзол и всё время смотрит на карманные часы.
Алиса гонится за Белым Кроликом через весь луг и видит, как он исчезает в кроличьей норе. Затем, неожиданно, Алиса падает туда сама, летит вниз по странному, сказочному туннелю и приземляется в круглом зале со множеством дверей. Выпив из бутылки с надписью «ВЫПЕЙ МЕНЯ», она уменьшается в размерах, а откусив от пирожного с надписью «СЪЕШЬ МЕНЯ» — вырастает. Наконец, миновав череду злоключений, Алиса попадает через одну из дверей в чудесный фантастический мир, который его обитатели называют Подземной страной.
Там ее ждет целый парад колоритных персонажей: хвастливая Соня, сумасшедший Шляпник, глумливый Чеширский Кот, накурившаяся кальяном гусеница по имени Абсалем, жутковатая Белая Королева и ее злобная сестра Королева Червей, вздорная и раздражительная правительница Подземной страны.

Доп. информация: 3D anaglyph

Просмотр возможен на любом цветном мониторе или телевизоре. Для просмотра понадобятся Красно/голубые анаглифные очки

Качество: HDRip
Формат: AVI
Видео кодек: XviD
Аудио кодек: AC3
Видео: XviD, NTSC 16:9 (1280x720), 6850 Kbs/avg, 23,976 fps
Аудио: Russian: AC-3 (6ch), 48 kHz, 640 kbps (дубляж)
Аудио: English: DTS (6 ch), 48 kHz, 1536 kbps
[Общее
Полное имя : Alice.in.wonderland.3D.anaglyph.avi
Формат : AVI
Формат/Информация : Audio Video Interleave
Профиль формата : OpenDML
Размер файла : 6,84 Гбайт
Продолжительность : 1 ч. 48 м.
Общий поток : 9013 Кбит/сек
Программа кодирования : VirtualDubMod 1.5.10.2 (build 2540/release)
Библиотека кодирования : VirtualDubMod build 2540/release

Видео
Идентификатор : 0
Формат : MPEG-4 Visual
Профиль формата : Advanced [email protected]
Параметр BVOP формата : 2
Параметр QPel формата : Нет
Параметр GMC формата : Без точки перехода
Параметр матрицы формата : Default (H.263)
Режим смешивания : Сжатый битовый поток
Идентификатор кодека : XVID
Идентификатор кодека/Подсказка : XviD
Продолжительность : 1 ч. 48 м.
Битрейт : 6851 Кбит/сек
Ширина : 1280 пикс.
Высота : 720 пикс.
Соотношение сторон : 16:9
Частота кадров : 23,976 кадр/сек
Цветовое пространство : YUV
Подвыборка цветности : 4:2:0
Битовая глубина : 8 бит
Тип развёртки : Прогрессивная
Метод сжатия : С потерями
Бит/(Пиксели*Кадры) : 0.310
Размер потока : 5,20 Гбайт (76%)
Библиотека кодирования : XviD 1.3.0.dev55

Аудио #1
Идентификатор : 1
Формат : AC-3
Формат/Информация : Audio Coding 3
Расширение режима : CM (complete main)
Идентификатор кодека : 2000
Продолжительность : 1 ч. 48 м.
Вид битрейта : Постоянный
Битрейт : 640 Кбит/сек
Каналы : 6 каналов
Расположение каналов : Front: L C R, Side: L R, LFE
Частота : 48,0 КГц
Битовая глубина : 16 бит
Метод сжатия : С потерями
Размер потока : 497 Мбайт (7%)
Выравнивание : Разделение по промежуткам
Продолжительность промежутка : 42 мс. (1,00 видеокадр)
Время предзагрузки промежутка : 500 ms

Аудио #2
Идентификатор : 2
Формат : DTS
Формат/Информация : Digital Theater Systems
Профиль формата : ES
Идентификатор кодека : 2001
Идентификатор кодека/Информация : Digital Theater Systems
Продолжительность : 1 ч. 48 м.
Вид битрейта : Постоянный
Битрейт : 1510 Кбит/сек
Каналы : 6 каналов
Расположение каналов : Front: L C R, Side: L R, LFE
Частота : 48,0 КГц
Битовая глубина : 24 бит
Метод сжатия : С потерями
Размер потока : 1,14 Гбайт (17%)
Выравнивание : Разделение по промежуткам
Продолжительность промежутка : 42 мс. (1,00 видеокадр)
Время предзагрузки промежутка : 500 ms]







Скачать Алиса в стране чудес 3D через торрент http://i25.fastpic.ru/big/2011/0803/38/4cf555a500a4c85163594aea62b50338.png Скачать, смотреть онлайн Алиса в стране чудес 3D бесплантно в хорошем качестве Описание: Жизнь 19-летней Алисы Кингсли принимает неожиданный оборот. На викторианской вечеринке, устроенной в её честь, Алисе делает ... 10 10 5
Info! Золотая раздача, скачанное не засчитывается.
Торрент: Зарегистрирован [2011-08-03 07:59] · скачан: 255 раз
Статус: √ проверено
Размер: 6.84 GB
Как cкачать? Как скачать Алиса в стране чудес 3D через торрент | UTorrent




Последний раз редактировалось: slaventi-69 (2011-08-03 13:48), всего редактировалось 2 раз(а)

28-11-2019 20:33  


Отключить вcю реклaмy на сайте, в т.ч. и в плеере онлайн просмотра!

03-08-2011 13:33 Алиса в стране чудес 3D Скачать торрент  

максимальный размер постера 700х700, убери ссылку на посторонние ресурсы



03-08-2011 13:38 Алиса в стране чудес 3D Скачать торрент  

Ссылку убрал .



03-08-2011 13:51 Алиса в стране чудес 3D Скачать торрент  

Как-то так . Вроде все . Проверьте пожалуйста .



03-08-2011 15:07 Алиса в стране чудес 3D Скачать торрент  

slaventi-69
а в лс не судьба написать?



03-08-2011 15:38 Алиса в стране чудес 3D Скачать торрент  

Только что попытался , пошел сбой сервера , перезагружался .
Написал - пока нет ответа .



05-08-2011 16:42 Алиса в стране чудес 3D Скачать торрент  

Danon5 привет), хотел бы узнать можно ли смотреть фильмы в формате 3D в телеке 3D, или она толко предназначена специально для компьютера?))



16-03-2013 16:36 Алиса в стране чудес 3D Скачать торрент  

slaventi-69
Дайте скорости п- та?????????????!!!!!!!!!!!!!!!!



    Дорогой пользователь! Огромная просьба, поблагодарите релизера, оцените раздачу и оставьте свои комментарий, если Вы скачали Алиса в стране чудес 3D через торрент бесплатно!!
    Комментировать посты могут только пользователи прошедшие не сложную регистрацию
    Показать сообщения:    


    Алиса в стране чудес 3D через торрент
    Скачать бесплатно Алиса в стране чудес 3D
    Алиса в стране чудес 3D скачать торрент
    Алиса в стране чудес 3D смотреть онлайн
    Cкачать фильм Алиса в стране чудес 3D бесплатно
    Алиса в стране чудес 3D скачать торрент в хорошем качестве
    Алиса в стране чудес 3D смотреть онлайн бесплатно в хорошем качестве
    Вы не можете начинать темы
    Вы не можете отвечать на сообщения
    Вы не можете редактировать свои сообщения
    Вы не можете удалять свои сообщения
    Вы не можете голосовать в опросах
    Вы не можете прикреплять файлы к сообщениям
    Вы можете скачивать файлы
    Алиса в стране чудес 3D / Alice in Wonderland 3D [2010 г., фэнтези, приключения, семейный, HDRip] 3D: Anaglyph / Анаглиф red'cyan смотреть онлайн, скачать торрент picoco.icu