2 сезон

iTunes

1 сезон

1

iTunes

iTunes

iTunes

1 сезон

RePack

30

ИГРА 18+

pack

ВАЖНО

!!Акция!!

Alien_RageХит недели

RePack

MK11
pack

Забери бонус

RePack

jed

!!Акция!!

Alien_Rage

RePack

fifa19

RePack

Assassins Creed: Odyssey

RePack

NEED FOR SPEED™ PAYBACK

4 сезон

9 сезон

Бесстыжие 9 сезон

Все сериалы

все сериалы на PB.wtf

RePack

FAR CRY 5
  

Дюплекс / Duplex (Дэнни ДеВито / Danny DeVito) [2003 г., комедия, BDRip 1080p] pb.wtf

Дюплекс через торрент pb.wtf

Раздают: 1 [ 0 KB/s ]
Размер: 8.63 GB | Добавлен: 9 лет 2 мес. назад | Торрент скачан:130 раз
Скачать  

05-08-2011 02:36 Дюплекс Скачать торрент  

Дюплекс / Duplex«It all started with one wrong move»
Год выпуска: 2003
Страна: США, Германия
Жанр: Комедия
Продолжительность: 01:29:09

  • Перевод:
    Профессиональный (полное дублирование);
    ПрПрофессиональный (многоголосый, закадровый) голоса DDV;
    ПрПрофессиональный (многоголосый, закадровый) R1;
  • Оригинальная аудиодорожка: Английская
  • Русские субтитры: есть

Режиссер: Дэнни ДеВито / Danny DeVito
В ролях: Бен Стиллер, Дрю Бэрримор, Айлин Эссел, Харви Фирштейн, Джастин Теру, Джеймс Римар, Роберт Уиздом, Свузи Кёрц, Уоллес Шоун, Майя Рудольф
Описание: Алекс и Нэнси наконец-то нашли квартиру своей мечты — двухэтажные апартаменты в тихом районе. Но покупка оказалось с нагрузкой: дряхлой старушкой, которая не собирается съезжать! Супруги решают немного подождать, пока вынужденная соседка съедет на тот свет по естественным причинам. Но бодрость старушки не оставляет молодоженам ни шанса…

Жизнь Алекса и Нэнси постепенно превращается в кошмар! Доведенные неожиданной активностью соседки до безумия, Алекс и Мэнси начинают разрабатывать зловещие планы физического устранения проблемы…


  • Тип релиза: BDRip
  • Контейнер: MKV
  • Видео кодек: h.264 | Аудио кодек: DTS, AC-3
  • Видео: 1920x1080, 10759 kbps, 23.976 fps
  • Аудио 1: Русский AC3 5.1, 48 KHz, 384 kbps профессиональный (полное дублирование)
  • Аудио 2: Русский AC3 5.1, 48 KHz, 384 kbps профессиональный (многоголосый, закадровый)
  • Аудио 3: Русский AC3 5.1, 48 KHz, 384 kbps профессиональный (многоголосый, закадровый)
  • Аудио 4: Английский AC3 5.1, 48 KHz, 448 kbps (с R1 DVD)
  • Аудио 5: Английский DTS 2.0, 48 KHz, 1536 kbps
  • Субтитры: Русские, английские


General
Unique ID : 200247540766400069684283087892834616266 (0x96A646046FAC30C7B0FA98174CEF03CA)
Complete name : Duplex.2003.BD.Rip.1080p.x264.3xRus.2xEng.mkv
Format : Matroska
File size : 8.63 GiB
Duration : 1h 29mn
Overall bit rate : 13.9 Mbps
Movie name : sem-duplex1080p
Encoded date : UTC 2011-05-19 11:51:51
Writing application : mkvmerge v4.7.0 ('Just Like You Imagined') built on Apr 28 2011 09:24:34
Writing library : libebml v1.2.0 + libmatroska v1.1.0

Video
ID : 1
Format : AVC
Format/Info : Advanced Video Codec
Format profile : High@L4.1
Format settings, CABAC : Yes
Format settings, ReFrames : 4 frames
Codec ID : V_MPEG4/ISO/AVC
Duration : 1h 29mn
Bit rate mode : Variable
Bit rate : 10.8 Mbps
Maximum bit rate : 25.0 Mbps
Width : 1 920 pixels
Height : 1 080 pixels
Display aspect ratio : 16:9
Frame rate : 23.976 fps
Color space : YUV
Chroma subsampling : 4:2:0
Bit depth : 8 bits
Scan type : Progressive
Bits/(Pixel*Frame) : 0.216
Stream size : 6.52 GiB (76%)
Writing library : x264 core 115 r1995 c1e60b9
Encoding settings : cabac=1 / ref=4 / deblock=1:0:0 / analyse=0x3:0x133 / me=umh / subme=7 / psy=1 / psy_rd=1.00:0.00 / mixed_ref=1 / me_range=16 / chroma_me=1 / trellis=1 / 8x8dct=1 / cqm=0 / deadzone=21,11 / fast_pskip=1 / chroma_qp_offset=-2 / threads=6 / sliced_threads=0 / nr=0 / decimate=1 / interlaced=0 / bluray_compat=0 / constrained_intra=0 / bframes=4 / b_pyramid=0 / b_adapt=1 / b_bias=0 / direct=1 / weightb=1 / open_gop=0 / weightp=2 / keyint=240 / keyint_min=24 / scenecut=40 / intra_refresh=0 / rc_lookahead=40 / rc=2pass / mbtree=1 / bitrate=10759 / ratetol=1.0 / qcomp=0.60 / qpmin=0 / qpmax=69 / qpstep=4 / cplxblur=20.0 / qblur=0.5 / vbv_maxrate=25000 / vbv_bufsize=25000 / nal_hrd=vbr / ip_ratio=1.40 / aq=1:1.00
Language : English

Audio #1
ID : 2
Format : AC-3
Format/Info : Audio Coding 3
Mode extension : CM (complete main)
Codec ID : A_AC3
Duration : 1h 29mn
Bit rate mode : Constant
Bit rate : 384 Kbps
Channel(s) : 6 channels
Channel positions : Front: L C R, Side: L R, LFE
Sampling rate : 48.0 KHz
Bit depth : 16 bits
Compression mode : Lossy
Stream size : 245 MiB (3%)
Title : Dublyazh AC3 5.1 384 kbps
Language : Russian

Audio #2
ID : 3
Format : AC-3
Format/Info : Audio Coding 3
Mode extension : CM (complete main)
Codec ID : A_AC3
Duration : 1h 29mn
Bit rate mode : Constant
Bit rate : 384 Kbps
Channel(s) : 6 channels
Channel positions : Front: L C R, Side: L R, LFE
Sampling rate : 48.0 KHz
Bit depth : 16 bits
Compression mode : Lossy
Stream size : 245 MiB (3%)
Title : MVO 1 (DDV) AC3 5.1 384 kbps
Language : Russian

Audio #3
ID : 4
Format : AC-3
Format/Info : Audio Coding 3
Mode extension : CM (complete main)
Codec ID : A_AC3
Duration : 1h 29mn
Bit rate mode : Constant
Bit rate : 384 Kbps
Channel(s) : 6 channels
Channel positions : Front: L C R, Side: L R, LFE
Sampling rate : 48.0 KHz
Bit depth : 16 bits
Compression mode : Lossy
Stream size : 245 MiB (3%)
Title : MVO 2 AC3 5.1 384 kbps
Language : Russian

Audio #4
ID : 5
Format : AC-3
Format/Info : Audio Coding 3
Mode extension : CM (complete main)
Codec ID : A_AC3
Duration : 1h 29mn
Bit rate mode : Constant
Bit rate : 448 Kbps
Channel(s) : 6 channels
Channel positions : Front: L C R, Side: L R, LFE
Sampling rate : 48.0 KHz
Bit depth : 16 bits
Compression mode : Lossy
Stream size : 286 MiB (3%)
Title : From DVD R1 AC3 5.1 448 kbps
Language : English

Audio #5
ID : 6
Format : DTS
Format/Info : Digital Theater Systems
Codec ID : A_DTS
Duration : 1h 29mn
Bit rate mode : Constant
Bit rate : 1 510 Kbps
Channel(s) : 2 channels
Channel positions : Front: L R
Sampling rate : 48.0 KHz
Bit depth : 24 bits
Compression mode : Lossy
Stream size : 963 MiB (11%)
Title : DTS 2.0 1536 kbps
Language : English

Text #1
ID : 7
Format : UTF-8
Codec ID : S_TEXT/UTF8
Codec ID/Info : UTF-8 Plain Text
Title : Licence
Language : Russian

Text #2
ID : 8
Format : UTF-8
Codec ID : S_TEXT/UTF8
Codec ID/Info : UTF-8 Plain Text
Language : English

pb.wtf



Скачать Дюплекс через торрент http://lostpic.net/images/7b5b6ece2684e97e6465c2fc6a81cb17.jpg Скачать фильм Дюплекс через торрент бесплантно в хорошем качестве Описание: Алекс и Нэнси наконец-то нашли квартиру своей мечты — двухэтажные апартаменты в тихом районе. Но покупка оказалось с нагрузкой: ... 10 10 2
Info! Золотая раздача, скачанное не засчитывается.
Торрент: Зарегистрирован [2011-08-05 02:36] · скачан: 130 раз
Статус: √ проверено
Размер: 8.63 GB
Как cкачать? Как скачать Дюплекс через торрент | qTorrent

% Раздел Тема Автор DL S | L
Фильмы 2001-2005 [ 1.45 GB ] Дюплекс / Duplex [2003 BDRip] killermax2013 Скачать
2 | 0
Фильмы [HD 720p, 1080p] (Хороший звук DUB, MVO) [ 4.98 GB ] Дюплекс / Duplex [2003 BDRip 720p лицензия] Ke$h@ Скачать
1 | 0
Фильмы 2001-2005 [ 1.37 GB ] Дюплекс / Duplex [2003 DVDRip] monaxz Скачать
1 | 0
Фильмы 2001-2005 [ 1.46 GB ] Дюплекс / Duplex [2003 DVDRip 26 сентября 2003] VintMosina Скачать
1 | 0

28-11-2019 20:33  

Отключить всю рекламу на сайте

    Дорогой пользователь! Огромная просьба, поблагодарите релизера, оцените раздачу и оставьте свои комментарий, если Вы скачали Дюплекс через торрент бесплатно! Внесите свою лепту в развитие PiratBit!
    Комментировать посты могут только пользователи прошедшие не сложную регистрацию
    Показать сообщения:    

    Дюплекс через торрент
    Скачать бесплатно Дюплекс
    Дюплекс скачать торрент
    Дюплекс смотреть онлайн
    Cкачать фильм Дюплекс бесплатно
    Дюплекс скачать торрент в хорошем качестве
    Дюплекс смотреть онлайн бесплатно в хорошем качестве


    Вы не можете начинать темы
    Вы не можете отвечать на сообщения
    Вы не можете редактировать свои сообщения
    Вы не можете удалять свои сообщения
    Вы не можете голосовать в опросах
    Вы не можете прикреплять файлы к сообщениям
    Вы можете скачивать файлы